<?xml version="1.0" standalone="no"?>
<!DOCTYPE svg PUBLIC "-//W3C//DTD SVG 1.1//EN" "http://www.w3.org/Graphics/SVG/1.1/DTD/svg11.dtd" >
<!--
2013-9-30: Created.
-->
<svg>
<metadata>
Created by iconfont
</metadata>
<defs>

<font id="iconfont" horiz-adv-x="1024" >
  <font-face
    font-family="iconfont"
    font-weight="500"
    font-stretch="normal"
    units-per-em="1024"
    ascent="896"
    descent="-128"
  />
    <missing-glyph />
    
    <glyph glyph-name="tuan" unicode="&#58881;" d="M1039.968965 26.33603q5.038609-159.220055-155.189167-154.181445l-832.378261 0 0 1007.721866 987.567428 0 0-853.54042zM852.532698-62.343494q88.679524-5.038609 84.648637 79.610027l0 794.08483-781.992168 0 0-873.694857 697.343531 0zM721.528856 612.830156l159.220055 0 0-65.501921-159.220055 0 0-407.119634q5.038609-137.050174-147.127392-132.011564l-59.45559 0 0 66.509643 55.424703 0q61.471034-5.038609 56.432424 65.501921l0 407.119634-56.432424 0q-60.463312-347.664044-349.679487-515.953595l0 66.509643q106.818518 88.679524 169.801134 199.528929t86.16022 249.915023l-265.030851 0 0 65.501921 415.181409 0 0 142.088783 94.725855 0 0-142.088783z"  horiz-adv-x="1041" />

    
    <glyph glyph-name="erweima" unicode="&#58883;" d="M152.075264 688.488192c101.716992 0 203.435008 0 305.152 0 31.031296-3.073024 23.552-57.696256 23.552-93.184 0-63.742976 0-105.755648 0-168.96 0-36.721664 6.915072-81.729536-17.408-92.16-15.840256-6.793216-58.351616-2.048-78.848-2.048-56.271872 0-102.012928 0-161.792 0-37.400576 0-88.469504-8.927232-94.208 23.552 0 103.083008 0 206.164992 0 309.248C132.70528 676.455168 140.061696 684.799744 152.075264 688.488192zM194.059264 618.856192c0-73.387008 0-146.772992 0-220.16 73.387008 0 146.772992 0 220.16 0 0 74.411008 0 148.820992 0 223.232-73.044992 0-146.091008 0-219.136 0C193.890304 621.75616 193.9712 620.309248 194.059264 618.856192zM561.675264 688.488192c101.716992 0 203.435008 0 305.152 0 12.447744-4.61824 21.001216-13.1328 23.552-27.648 0-100.352 0-200.705024 0-301.056-2.792448-12.510208-9.324544-23.196672-21.504-26.624-19.904512-5.600256-52.977664-1.024-76.8-1.024-56.127488 0-102.14912 0-156.672 0-23.626752 0-58.642432-4.97664-77.824 1.024-27.077632 8.471552-19.456 61.329408-19.456 98.304 0 49.115136 0 106.445824 0 157.696C538.123264 631.851776 528.75264 682.523392 561.675264 688.488192zM603.659264 618.856192c0-73.387008 0-146.772992 0-220.16 73.387008 0 146.772992 0 220.16 0 0 74.411008 0 148.820992 0 223.232-73.044992 0-146.091008 0-219.136 0C603.490304 621.75616 603.5712 620.309248 603.659264 618.856192zM294.411264 554.344192c30.661632 5.786624 54.774784-14.930944 55.296-43.008 0.687104-37.025792-37.129216-57.365504-66.56-41.984C249.47712 486.949632 251.693056 546.28224 294.411264 554.344192zM704.011264 554.344192c72.223744 13.493248 70.839296-100.886528 0-89.088C658.929664 472.76416 657.47456 545.649408 704.011264 554.344192zM455.179264-83.607808c-100.692992 0-201.385984 0-302.08 0-12.540928 3.843072-21.01248 11.75552-24.576 24.576 0 102.740992 0 205.483008 0 308.224 2.982912 9.019392 9.868288 19.542016 20.48 22.528 20.0448 5.640192 52.7872 1.024 76.8 1.024 55.189504 0 105.184256 0 156.672 0 23.154688 0 56.85248 5.168128 77.824-1.024 28.371968-8.37632 20.48-60.376064 20.48-97.28 0-56.7296 0-105.121792 0-162.816C480.779264-28.206336 489.356288-80.051456 455.179264-83.607808zM194.059264 203.112192c0-73.388032 0-146.772992 0-220.16 73.387008 0 146.772992 0 220.16 0 0 74.411008 0 148.820992 0 223.232-73.044992 0-146.091008 0-219.136 0C193.890304 206.01216 193.9712 204.565248 194.059264 203.112192zM890.379264 245.096192c0-28.672 0-57.344 0-86.016-2.388992-29.014016-0.342016-62.462976-1.024-93.184-72.704 0-145.408 0-218.112 0 0 16.724992 0 33.451008 0 50.176-20.481024 2.387968-45.395968 0.342016-67.584 1.024-2.388992-64.854016-0.340992-134.142976-1.024-200.704-13.312 0-26.624 0-39.936 0-34.337792 6.882304-24.576 58.407936-24.576 99.328 0 57.078784 0 104.042496 0 158.72 0 23.865344-4.830208 59.64288 1.024 78.848 6.984704 22.913024 37.274624 19.456 67.584 19.456 51.24096 0 96.891904 0 148.48 0 0-45.396992 0-90.795008 0-136.192 22.868992 0 45.739008 0 68.608 0 0.681984 45.056-1.364992 92.841984 1.024 136.192C857.858048 274.697984 888.439808 274.216704 890.379264 245.096192zM299.531264 139.624192c32.740352 3.623936 59.804672-27.841536 47.104-62.464-17.604608-47.98976-101.778432-29.953024-86.016 30.72C264.976384 124.651264 277.561344 137.192192 299.531264 139.624192zM744.971264-83.607808c-24.576 0-49.152 0-73.728 0 0.681984 26.284032-1.363968 55.294976 1.024 79.872 24.235008 0 48.468992 0 72.704 0C744.971264-30.359808 744.971264-56.983808 744.971264-83.607808zM890.379264-3.735808c0-17.408 0-34.816 0-52.224-2.84672-14.56128-11.36128-23.45472-24.576-27.648-17.408 0-34.816 0-52.224 0 0.681984 26.284032-1.363968 55.294976 1.024 79.872C839.862272-3.735808 865.120256-3.735808 890.379264-3.735808z"  horiz-adv-x="1024" />

    
    <glyph glyph-name="square" unicode="&#59093;" d="M832-32 192-32c-52.928 0-96 43.072-96 96L96 704c0 52.928 43.072 96 96 96l640 0c52.928 0 96-43.072 96-96l0-640C928 11.072 884.928-32 832-32zM192 736C174.368 736 160 721.632 160 704l0-640c0-17.664 14.368-32 32-32l640 0c17.664 0 32 14.336 32 32L864 704c0 17.632-14.336 32-32 32L192 736z"  horiz-adv-x="1024" />

    
    <glyph glyph-name="horn" unicode="&#58900;" d="M511.219 825.517l-227.213-227.313-161.038 0c-41.846 0-75.781-33.935-75.781-75.781l0-303.097c0-41.882 33.935-75.782 75.781-75.782l161.037 0 227.213-227.377c41.845 0 75.748 33.934 75.748 75.78l0 757.789c0.001 41.846-33.901 75.781-75.746 75.781zM511.219-5.427l-198.83 219.372-189.421 0 0 303.093 189.421 0 198.83 219.402 0-741.868zM960.31 337.605c7.483 0 13.534 14.892 13.534 33.239s-6.051 33.239-13.534 33.239l-94.755 0c-7.482 0-13.533-14.889-13.533-33.239 0-18.347 6.051-33.239 13.533-33.239l94.755 0zM970.582 767.156c6.484 3.743 4.277 19.663-4.897 35.552s-21.858 25.759-28.341 22.017l-82.059-47.376c-6.483-3.743-4.277-19.663 4.897-35.552s21.859-25.758 28.342-22.016l82.058 47.375zM970.582-25.47c6.484-3.743 4.277-19.662-4.897-35.553-9.174-15.888-21.858-25.759-28.341-22.016l-82.059 47.376c-6.483 3.743-4.277 19.662 4.897 35.552 9.174 15.889 21.859 25.758 28.342 22.016l82.058-47.375zM640.286 200.588c-6.756 18.186-4.889 35.436 13.299 42.194 45.93 21.204 67.853 62.464 73.459 114.215 6.541 60.379-22.355 115.869-72.24 138.725-16.317 10.496-23.073 28.677-12.579 44.995 10.497 16.316 28.683 23.073 44.995 12.579 73.893-42.911 118.17-117.522 108.828-203.777-7.477-69.002-49.452-134.269-113.569-162.23-14.983-8.481-35.07-2.914-42.193 13.294z"  horiz-adv-x="1024" />

    
    <glyph glyph-name="biaoqian" unicode="&#58971;" d="M582.02996-90.738351c-13.697977 0-27.39493 5.212722-37.824467 15.639189L89.942475 379.168971c-4.267187 3.928472-21.856797 22.12081-21.596877 54.717206L50.167586 828.724781c-0.23843 5.173836 1.713015 10.209526 5.375427 13.871939l0.676405 0.676405c3.662413 3.662413 8.698103 5.610788 13.871939 5.375427l394.838603-18.178011c32.637328 0.270153 50.792826-17.33276 54.718229-21.597901l454.266088-454.260971c20.849864-20.857027 20.849864-54.78986 0.00307-75.644841l-32.743752-32.742728c-7.192819-7.192819-18.85544-7.192819-26.048259 0s-7.192819 18.85544 0 26.048259l32.740682 32.740682c6.488785 6.491855 6.488785 17.058514-0.00307 23.552415L493.26838 783.153886c-0.468674 0.468674-0.50756 0.469698-0.852414 0.900509-1.249457 1.261737-10.387581 9.828856-27.541263 9.574053-0.372483-0.007163-0.743944 0-1.115404 0.017396L87.86414 810.950975l17.305131-375.894136c0.017396-0.37146 0.022513-0.74292 0.017396-1.11438-0.249687-17.170055 8.31334-26.292829 9.574053-27.542286 0.429789-0.344854 0.430812-0.382717 0.900509-0.852414l454.592522-454.596615c6.491855-6.489808 17.056468-6.491855 23.548322 0l218.781842 218.779795c2.734274 2.735297 33.516348 32.255635 87.008656 32.255635 10.172687 0 18.419512-8.246825 18.419512-18.419512s-8.246825-18.419512-18.419512-18.419512c-38.918381 0-60.595077-21.093411-60.803831-21.306258-0.052189-0.054235-0.104377-0.106424-0.156566-0.158612L619.851357-75.097116C609.425913-85.523583 595.727936-90.737328 582.02996-90.738351zM225.154993 605.520209c-38.251186 0-69.37095 31.119765-69.37095 69.37095s31.119765 69.37095 69.37095 69.37095 69.37095-31.119765 69.37095-69.37095S263.406179 605.520209 225.154993 605.520209zM225.154993 707.423087c-17.938558 0-32.531927-14.59337-32.531927-32.531927 0-17.938558 14.59337-32.531927 32.531927-32.531927 17.937534 0 32.531927 14.59337 32.531927 32.531927C257.685897 692.829717 243.092527 707.423087 225.154993 707.423087z"  horiz-adv-x="1024" />

    
    <glyph glyph-name="xinfengtianchong" unicode="&#59041;" d="M875.175936 648.583168M903.489536 778.201088 125.989888 778.201088c-51.463168 0-93.179904-41.719808-93.179904-93.185024l0-575.474688c0-51.46624 41.716736-93.182976 93.179904-93.182976l777.499648 0c51.468288 0 93.190144 41.716736 93.190144 93.182976L996.67968 685.016064C996.67968 736.482304 954.957824 778.201088 903.489536 778.201088zM904.646656 670.514176 526.856192 285.89568c-3.557376-3.598336-8.38144-5.64224-13.451264-5.64224l-0.04096 0c-5.069824 0.02048-9.894912 2.064384-13.451264 5.6832L124.778496 670.16704c-7.236608 7.441408-7.114752 19.380224 0.326656 26.637312 7.482368 7.277568 19.339264 7.114752 26.657792-0.306176l361.68192-370.471936 364.29824 370.900992c7.277568 7.441408 19.216384 7.523328 26.657792 0.22528C911.802368 689.87392 911.924224 677.935104 904.646656 670.514176z"  horiz-adv-x="1024" />

    
    <glyph glyph-name="dizhi" unicode="&#58958;" d="M811.084 317.297l-279.442-417.501c-5.482-8.227-14.684-13.148-24.557-13.148l-0.002 0c-9.818 0-19.041 4.927-24.557 13.127l-279.307 416.421c-34.029 54.436-51.751 116.094-51.751 179.049 0 189.898 159.406 344.416 355.359 344.416 195.927 0 355.359-154.508 355.359-344.416 0-62.864-17.669-124.398-51.088-177.949l0 0zM506.829 780.083c-163.293 0-296.128-127.782-296.128-284.842 0-51.751 14.606-102.412 42.17-146.556l254.208-378.977 254.4 380.022c26.976 43.239 41.484 93.845 41.484 145.498 0 157.055-132.853 284.842-296.117 284.842l0 0zM506.829 332.737c-92.846 0-168.368 73.486-168.368 163.827 0 90.292 75.523 163.791 168.368 163.791 92.846 0 168.359-73.474 168.359-163.791 0-90.315-75.506-163.827-168.359-163.827l0 0zM506.829 600.781c-60.212 0-109.156-46.774-109.156-104.239 0-57.471 48.953-104.239 109.156-104.239 60.195 0 109.143 46.766 109.143 104.239 0 57.461-48.953 104.239-109.143 104.239l0 0z"  horiz-adv-x="1024" />

    
    <glyph glyph-name="htmal5icon14" unicode="&#58953;" d="M510.015809 766.604978c-144.147004 0-261.006526-116.859521-261.006526-261.006526 0-144.147004 261.006526-498.286674 261.006526-498.286674s261.006526 354.138646 261.006526 498.286674C771.023358 649.745457 654.163837 766.604978 510.015809 766.604978zM510.015809 377.553171c-70.723761 0-128.045281 57.32152-128.045281 128.045281s57.32152 128.044258 128.045281 128.044258 128.045281-57.32152 128.045281-128.044258S580.739571 377.553171 510.015809 377.553171z"  horiz-adv-x="1024" />

    
    <glyph glyph-name="wanchenggouxuan2" unicode="&#58942;" d="M512-128C229.230388-128 0 101.230388 0 384 0 666.769612 229.230388 896 512 896 794.769612 896 1024 666.769612 1024 384 1024 101.230388 794.769612-128 512-128ZM760.336507 702.967747C582.233902 585.950839 469.292656 234.896875 469.292656 234.896875L399.786519 407.638365 256.436836 296.192737C317.253711 268.330446 404.131003 179.174061 477.978086 62.157448 530.105994 184.747404 690.834201 435.498593 769.025769 457.787836 738.617331 546.944221 755.99556 619.384705 760.336507 702.967747Z"  horiz-adv-x="1024" />

    
    <glyph glyph-name="custom-service" unicode="&#58902;" d="M510.257 717.734c-139.235 0-252.1-110.566-252.1-246.949 0-136.378 112.864-246.945 252.1-246.945 139.231 0 252.096 110.566 252.096 246.945-0.055 136.382-112.864 246.949-252.096 246.949v0 0zM219.136 375.951v228.022c-3.191 0-6.381-0.111-9.462-0.389 51.674 112.194 166.721 190.346 300.584 190.346 133.858 0 248.96-78.151 300.578-190.346-3.135 0.222-6.27 0.389-9.461 0.389v-228.023c64.27 0 116.448 51.058 116.448 113.983 0 42.772-24.072 80.001-59.622 99.542-50.051 141.136-186.711 242.469-347.943 242.469-161.236 0-297.841-101.332-347.948-242.468-35.55-19.485-59.623-56.77-59.623-99.486-0-62.981 52.123-114.039 116.449-114.039v0 0zM761.794 245.228c-65.893-60.242-154.292-97.133-251.536-97.133-97.077 0-185.366 36.724-251.204 96.795-117.793-59.344-195.164-165.097-195.164-308.698h895.753c0 143.878-78.771 249.746-197.85 309.036v0 0zM761.794 245.228z"  horiz-adv-x="1025" />

    
    <glyph glyph-name="dianhua" unicode="&#58930;" d="M950.595176 35.54582l-42.041512-41.905412c-17.171078-17.132192-38.510082-30.80561-63.568804-40.721447-27.544333-10.965749-58.489112-16.220427-91.556229-16.220427-126.97081-0.058328-327.609433 118.322849-460.567607 250.898307C125.240399 354.743676 24.808012 584.735837 77.885881 717.768713c7.756661 19.479657 18.524912 36.791951 31.339776 52.000328l-0.034792 0.068562 2.724041 4.397147c1.212618 1.987261 2.62785 3.784186 4.224208 5.377474l44.115754 43.953048c11.180644 11.241019 29.348422 11.241019 40.525995 0l19.863397-19.793812 173.040055-172.582637c11.178597-11.106965 11.178597-29.200042-0.034792-40.370453l-46.264697-46.196135-31.461549-31.379685c0 0-16.463973-105.217367 100.734262-222.068701 117.194142-116.799146 222.2355-100.882642 222.2355-100.882642l78.205153 78.004585c11.178597 11.17041 29.370935 11.17041 40.516786 0L950.560384 75.980741C961.759447 64.800098 961.759447 46.718277 950.595176 35.54582L950.595176 35.54582zM950.595176 35.54582"  horiz-adv-x="1024" />

    
    <glyph glyph-name="message2_full" unicode="&#58970;" d="M238.886 699.5v-193.079l-174.221-122.42 174.221-117.729v-197.77h720.446v630.999h-720.446zM436.062 299.241c-49.731 0-90.055 40.339-90.055 90.057 0 49.746 40.324 90.056 90.055 90.056 49.736 0 90.057-40.311 90.057-90.056 0-49.718-40.322-90.057-90.057-90.057zM770.103 299.241c-49.733 0-90.056 40.339-90.056 90.057 0 49.746 40.323 90.056 90.056 90.056s90.055-40.311 90.055-90.056c0-49.718-40.322-90.057-90.055-90.057z"  horiz-adv-x="1024" />

    
    <glyph glyph-name="location1" unicode="&#58954;" d="M511.998 832.486c-200.688 0-363.371-150.581-363.371-336.355 0-280.296 302.807-560.618 363.371-560.618 60.567 0 363.373 280.322 363.373 560.618 0 185.774-162.684 336.355-363.373 336.355zM511.998 294.304c-100.343 0-181.697 80.316-181.697 179.394s81.354 179.394 181.697 179.394c100.345 0 181.674-80.316 181.674-179.394s-81.329-179.394-181.674-179.394z"  horiz-adv-x="1024" />

    
    <glyph glyph-name="dianzan" unicode="&#58892;" d="M884.876 472.857h-237.905c92.186 340.464-63.517 357.853-63.517 357.853-65.993 0-52.312-52.182-57.303-60.882 0-166.502-176.85-296.972-176.85-296.972v-472.172c0-46.608 63.517-63.394 88.433-63.394h357.452c33.641 0 61.036 88.224 61.036 88.224 88.434 300.706 88.434 390.177 88.434 390.177 0.001 62.128-59.781 57.164-59.781 57.164v0 0zM251.671 472.7h-142.457c-29.42 0-29.873-28.896-29.873-28.896l29.42-476.203c0-30.309 30.361-30.309 30.361-30.309h123.297c25.686 0 25.459 20.050 25.459 20.050l-0 479.247c0 36.574-36.208 36.111-36.208 36.111v0 0zM251.671 472.7z"  horiz-adv-x="1024" />

    
    <glyph glyph-name="iconfonticonfonti2copycopy" unicode="&#58926;" d="M276.755-46.936c28.497-29.315 74.739-29.315 103.307 0l367.236 378.011c28.483 29.367 28.483 76.982 0 106.291l-367.236 377.997c-28.562 29.367-74.806 29.367-103.307 0-28.546-29.325-28.546-76.929 0-106.304l315.6-324.841-315.599-324.803c-28.545-29.367-28.544-76.973 0-106.356l0 0z"  horiz-adv-x="1024" />

    
    <glyph glyph-name="iconfontjiantou4" unicode="&#58932;" d="M439.62624 896 388.4608 844.83584 388.4608 844.83584 848.94976 384.35712 388.4608-76.13568 439.62624-127.30112 951.28064 384.35712Z"  horiz-adv-x="1024" />

    
    <glyph glyph-name="zuojiantou" unicode="&#58945;" d="M230.4 384 742.4 896l51.2-51.2-460.8-460.8 460.8-460.8-51.2-51.2L230.4 384z"  horiz-adv-x="1024" />

    
    <glyph glyph-name="jiantouarrow487" unicode="&#59051;" d="M714.19904 346.15296l-328.704-328.69376c-20.91008-20.91008-54.80448-20.91008-75.70432 0-20.89984 20.89984-20.89984 54.80448 0 75.70432L600.63744 384 309.80096 674.83648c-20.89984 20.91008-20.89984 54.80448 0 75.70432 20.89984 20.91008 54.79424 20.91008 75.70432 0l328.704-328.69376c10.4448-10.45504 15.6672-24.14592 15.6672-37.84704S724.64384 356.59776 714.19904 346.15296z"  horiz-adv-x="1024" />

    
    <glyph glyph-name="yanjing" unicode="&#58977;" d="M515.2 672c-307.2 0-492.8-313.6-492.8-313.6s214.4-304 492.8-304 492.8 304 492.8 304S822.4 672 515.2 672zM832 243.2c-102.4-86.4-211.2-140.8-320-140.8s-217.6 51.2-320 140.8c-35.2 32-70.4 64-99.2 99.2-6.4 6.4-9.6 12.8-16 19.2 3.2 6.4 9.6 12.8 12.8 19.2 25.6 35.2 57.6 70.4 92.8 102.4 99.2 89.6 208 144 329.6 144s230.4-54.4 329.6-144c35.2-32 64-67.2 92.8-102.4 3.2-6.4 9.6-12.8 12.8-19.2-3.2-6.4-9.6-12.8-16-19.2C902.4 310.4 870.4 275.2 832 243.2zM512 550.4c-96 0-169.6-76.8-169.6-169.6 0-96 76.8-169.6 169.6-169.6 96 0 169.6 76.8 169.6 169.6C681.6 473.6 604.8 550.4 512 550.4zM512 256c-67.2 0-121.6 54.4-121.6 121.6 0 67.2 54.4 121.6 121.6 121.6 67.2 0 121.6-54.4 121.6-121.6C633.6 313.6 579.2 256 512 256z"  horiz-adv-x="1024" />

    
    <glyph glyph-name="hezuoshixin" unicode="&#58940;" d="M416 448C416 448 416 448 416 448c121.6 0 243.2 134.4 243.2 134.4l19.2 19.2 230.4-243.2c44.8 44.8 115.2 128 115.2 230.4 6.4 70.4-25.6 134.4-83.2 192C768 960 588.8 793.6 582.4 787.2L300.8 499.2C332.8 467.2 371.2 448 416 448zM288 339.2c6.4 6.4 6.4 12.8 6.4 19.2 0 12.8-6.4 19.2-12.8 25.6C268.8 396.8 256 396.8 243.2 396.8 236.8 396.8 224 390.4 217.6 384l-102.4-128c-12.8-19.2-12.8-44.8 6.4-57.6 12.8-12.8 32-12.8 44.8 0 0 0 0 0 0 6.4l102.4 128C275.2 332.8 281.6 332.8 288 339.2zM377.6 249.6C377.6 256 384 268.8 384 275.2c0 12.8-6.4 19.2-12.8 25.6C358.4 313.6 352 313.6 339.2 313.6c-6.4 0-12.8 0-19.2-6.4 0 0 0 0 0-6.4l-102.4-128c0-6.4-6.4-6.4-12.8-12.8-6.4-19.2-6.4-38.4 12.8-51.2 6.4-6.4 19.2-6.4 32-6.4 6.4 0 12.8 6.4 19.2 6.4 0 0 0 0 0 0l102.4 128C371.2 243.2 371.2 249.6 377.6 249.6zM467.2 166.4c6.4 19.2 6.4 38.4-12.8 51.2-6.4 6.4-12.8 6.4-25.6 6.4 0 0 0 0-6.4 0-6.4 0-12.8-6.4-19.2-6.4 0 0 0 0 0 0l-102.4-128c0 0-6.4-6.4-6.4-6.4-6.4-6.4-6.4-19.2-6.4-25.6 0-12.8 6.4-19.2 12.8-25.6 6.4-6.4 19.2-12.8 32-6.4 6.4 0 19.2 6.4 25.6 12.8 0 0 0 6.4 6.4 6.4L467.2 166.4C467.2 166.4 467.2 166.4 467.2 166.4zM576 115.2c0 12.8-6.4 19.2-12.8 25.6-6.4 6.4-19.2 6.4-25.6 6.4-12.8 0-19.2-6.4-25.6-12.8 0 0 0-6.4-6.4-6.4l-102.4-128c0 0 0 0 0-6.4-6.4-6.4-6.4-12.8-6.4-19.2 0-12.8 6.4-19.2 12.8-25.6 19.2-12.8 44.8-12.8 57.6 6.4l102.4 128C569.6 96 576 102.4 576 115.2zM576 25.6l-57.6-70.4 32-32c6.4-6.4 19.2-12.8 32-12.8 12.8 0 25.6 6.4 32 12.8 6.4 6.4 12.8 19.2 12.8 32 0 12.8-6.4 25.6-12.8 32L576 25.6zM755.2 448C755.2 448 755.2 454.4 755.2 448l-83.2 89.6C633.6 492.8 531.2 403.2 416 403.2c0 0 0 0 0 0-64 0-121.6 25.6-166.4 83.2L236.8 505.6l236.8 236.8L448 768c0 0-83.2 83.2-192 83.2C192 851.2 128 825.6 70.4 768 19.2 723.2 0 665.6 0 608c0-115.2 96-217.6 128-256l51.2 64c12.8 19.2 38.4 32 57.6 32 25.6 0 44.8-6.4 64-19.2 19.2-12.8 32-38.4 32-57.6 0 0 0-6.4 0-6.4 19.2 0 44.8-6.4 57.6-19.2 19.2-12.8 32-38.4 32-57.6 0 0 0-6.4 0-6.4 19.2 0 44.8-6.4 57.6-19.2 19.2-12.8 32-38.4 32-57.6 25.6 6.4 51.2 0 70.4-19.2 19.2-12.8 32-38.4 32-57.6 0-19.2 0-38.4-12.8-57.6l44.8-44.8c6.4-6.4 19.2-12.8 32-12.8 12.8 0 25.6 6.4 32 12.8 6.4 6.4 12.8 19.2 12.8 32 0 12.8-6.4 25.6-12.8 32 0 0 0 0-6.4 6.4l-160 166.4c-6.4 12.8-6.4 25.6 0 32 6.4 6.4 19.2 6.4 32 0 0 0 6.4 0 6.4-6.4l160-166.4c0 0 0 0 0 0 19.2-12.8 44.8-12.8 64 0 19.2 12.8 19.2 38.4 6.4 57.6 0 0-6.4 6.4-6.4 6.4l-160 166.4c-6.4 12.8-6.4 25.6 0 32 6.4 6.4 19.2 6.4 25.6 6.4 6.4 0 6.4 0 12.8-6.4l160-166.4c0 0 0-6.4 6.4-6.4 19.2-12.8 38.4-12.8 57.6 6.4 6.4 6.4 12.8 19.2 12.8 32 0 12.8-6.4 25.6-12.8 32L755.2 448z"  horiz-adv-x="1025" />

    
    <glyph glyph-name="jia" unicode="&#58906;" d="M512-128C229.2224-128 0 101.2224 0 384 0 666.7776 229.2224 896 512 896 794.7776 896 1024 666.7776 1024 384 1024 101.2224 794.7776-128 512-128ZM716.8 409.6 537.6 409.6 537.6 588.8 486.4 588.8 486.4 409.6 307.2 409.6 307.2 358.4 486.4 358.4 486.4 179.2 537.6 179.2 537.6 358.4 716.8 358.4 716.8 409.6Z"  horiz-adv-x="1024" />

    
    <glyph glyph-name="xiaolian" unicode="&#58922;" d="M512.016-128C229.232-128 0.016 101.216 0.016 384 0.016 666.784 229.232 896 512.016 896 794.784 896 1024 666.784 1024 384 1024 101.216 794.784-128 512.016-128ZM512.016 832C264.976 832 64.016 631.04 64.016 384 64.016 136.976 264.976-64 512.016-64 759.04-64 960 136.976 960 384 960 631.04 759.04 832 512.016 832ZM510.336 62.544C509.056 62.544 507.744 62.512 506.448 62.512 310.992 62.512 229.024 238.88 225.616 246.448 218.336 262.576 225.488 281.504 241.584 288.784 257.712 296.032 276.576 288.912 283.888 272.912 286.64 266.88 352.928 126.512 506.576 126.512 507.584 126.512 508.576 126.544 509.584 126.544 672.896 128.448 738.368 271.232 739.024 272.656 746.176 288.784 765.024 296.128 781.264 288.848 797.392 281.664 804.672 262.752 797.456 246.592 794.176 239.2 714.208 64.944 510.336 62.544ZM671.504 416.16C636.224 416.16 607.664 444.768 607.664 480.016 607.664 515.232 636.224 543.824 671.504 543.824 706.768 543.824 735.344 515.232 735.344 480.016 735.344 444.768 706.768 416.16 671.504 416.16ZM351.504 416.16C316.224 416.16 287.664 444.768 287.664 480.016 287.664 515.232 316.224 543.824 351.504 543.824 386.768 543.824 415.344 515.232 415.344 480.016 415.344 444.768 386.768 416.16 351.504 416.16Z"  horiz-adv-x="1025" />

    
    <glyph glyph-name="pinglun1" unicode="&#59053;" d="M850.879104 799.58409l-676.303067 0c-60.681034 0-110.049418-49.367361-110.049418-110.049418l0-446.200388c0-60.681034 49.367361-110.049418 110.049418-110.049418l90.307795 0L396.936381-35.129846c3.793396-4.838192 9.598612-7.66354 15.746636-7.66354s11.952216 2.825348 15.746636 7.66354l132.052548 168.414711 290.396903 0c60.681034 0 110.049418 49.367361 110.049418 110.049418L960.928522 689.534671C960.928522 750.215706 911.561162 799.58409 850.879104 799.58409zM920.91111 243.334283c0-38.614459-31.416524-70.030983-70.030983-70.030983L550.744419 173.3033c-6.147 0-11.952216-2.825348-15.745612-7.66354L412.683017 9.643893l-122.31579 155.995867c-3.792373 4.838192-9.597589 7.66354-15.745612 7.66354l-100.045577 0c-38.614459 0-70.030983 31.416524-70.030983 70.030983L104.545054 689.534671c0 38.614459 31.416524 70.030983 70.030983 70.030983l676.303067 0c38.614459 0 70.030983-31.416524 70.030983-70.030983L920.910087 243.334283zM272.621051 551.473269c-44.132126 0-80.035848-35.903721-80.035848-80.035848 0-44.132126 35.903721-80.036871 80.035848-80.036871s80.035848 35.904745 80.035848 80.036871C352.655875 515.569548 316.752154 551.473269 272.621051 551.473269zM272.621051 431.417963c-22.065552 0-40.017412 17.951861-40.017412 40.018436 0 22.065552 17.952884 40.017412 40.017412 40.017412 22.065552 0 40.017412-17.951861 40.017412-40.017412C312.638463 449.370847 294.686602 431.417963 272.621051 431.417963zM512.727571 551.473269c-44.132126 0-80.035848-35.903721-80.035848-80.035848 0-44.132126 35.903721-80.036871 80.035848-80.036871 44.132126 0 80.035848 35.904745 80.035848 80.036871C592.763418 515.569548 556.859697 551.473269 512.727571 551.473269zM512.727571 431.417963c-22.065552 0-40.017412 17.951861-40.017412 40.018436 0 22.065552 17.951861 40.017412 40.017412 40.017412 22.065552 0 40.017412-17.951861 40.017412-40.017412C552.746006 449.370847 534.793122 431.417963 512.727571 431.417963zM752.836137 551.473269c-44.131103 0-80.035848-35.903721-80.035848-80.035848 0-44.132126 35.904745-80.036871 80.035848-80.036871s80.035848 35.904745 80.035848 80.036871C832.871985 515.569548 796.96724 551.473269 752.836137 551.473269zM752.836137 431.417963c-22.066575 0-40.017412 17.951861-40.017412 40.018436 0 22.065552 17.951861 40.017412 40.017412 40.017412s40.017412-17.951861 40.017412-40.017412C792.853549 449.370847 774.902712 431.417963 752.836137 431.417963z"  horiz-adv-x="1024" />

    
    <glyph glyph-name="dianhua1" unicode="&#58963;" d="M608 876.8c-32 0-57.6 0-89.6-6.4-6.4 0-12.8-12.8-12.8-19.2C505.6 838.4 512 832 524.8 838.4 550.4 844.8 576 844.8 608 844.8c211.2 0 390.4-172.8 390.4-390.4 0-83.2-25.6-166.4-76.8-236.8-6.4-6.4-6.4-19.2 0-19.2 0 0 6.4 0 6.4 0 6.4 0 6.4 0 12.8 6.4 57.6 70.4 83.2 160 83.2 256C1024 684.8 838.4 876.8 608 876.8zM608 710.4c-19.2 0-44.8 0-64-6.4-6.4 0-12.8-12.8-12.8-19.2 0-6.4 12.8-12.8 19.2-12.8 19.2 6.4 38.4 6.4 57.6 6.4 134.4 0 243.2-108.8 243.2-243.2 0-44.8-12.8-83.2-32-121.6-6.4-6.4 0-19.2 6.4-19.2 0 0 6.4 0 6.4 0 6.4 0 12.8 0 12.8 6.4 25.6 38.4 38.4 89.6 38.4 134.4C876.8 588.8 755.2 710.4 608 710.4zM678.4 339.2c0 0 6.4 0 6.4 0 6.4 0 12.8 0 12.8 6.4 12.8 19.2 19.2 44.8 19.2 70.4 0 76.8-64 140.8-140.8 140.8-12.8 0-25.6 0-32-6.4-6.4 0-12.8-12.8-12.8-19.2 0-6.4 12.8-12.8 19.2-12.8 6.4 0 19.2 0 25.6 0 64 0 108.8-51.2 108.8-108.8 0-19.2-6.4-38.4-12.8-57.6C672 352 672 345.6 678.4 339.2zM640 224c-57.6 0-134.4-64-134.4-64-185.6 25.6-326.4 185.6-326.4 384 0 6.4 0 19.2 0 25.6l6.4 0c6.4 0 12.8 0 12.8 0 89.6 0 160 70.4 160 160S294.4 896 204.8 896c-64 0-121.6-38.4-147.2-89.6 0-6.4-6.4-12.8-6.4-19.2C19.2 710.4 0 627.2 0 544 0 185.6 275.2-102.4 620.8-128l19.2 0c96 0 172.8 76.8 172.8 172.8S736 224 640 224z"  horiz-adv-x="1024" />

    
    <glyph glyph-name="biaoti" unicode="&#58923;" d="M116.181404 762.277854 116.181404 454.866575 201.417293 454.866575 201.417293 762.277854 317.598697 762.277854 317.598697 832 0 832 0 762.277854 116.181404 762.277854ZM412.356282 770.200826 412.356282 832 335.263948 832 335.263948 770.200826 412.356282 770.200826ZM335.263948 727.944979 335.263948 454.866575 412.356282 454.866575 412.356282 727.944979 335.263948 727.944979ZM550.003263 727.944979 550.003263 809.815681 472.91093 809.815681 472.91093 727.944979 426.221206 727.944979 426.221206 677.766163 472.91093 677.766163 472.91093 516.66575C472.91093 502.932531 475.263489 491.840483 479.968678 483.389271 484.673868 474.93806 491.098164 468.423682 499.241762 463.845942 507.385359 459.268203 516.795596 456.187078 527.472757 454.602476 538.149917 453.017874 549.4603 452.225585 561.404242 452.225585 569.004932 452.225585 576.786475 452.401649 584.749103 452.753782 592.711731 453.105916 599.950376 453.810173 606.465253 454.866575L606.465253 512.968363C602.845877 512.264095 599.045588 511.735903 595.064275 511.383769 591.082961 511.031635 586.92074 510.855571 582.577488 510.855571 569.547733 510.855571 560.86136 512.968342 556.518108 517.193948 552.174856 521.419553 550.003263 529.870638 550.003263 542.547455L550.003263 677.766163 606.465253 677.766163 606.465253 727.944979 550.003263 727.944979ZM624.673409 832 624.673409 454.866575 701.765741 454.866575 701.765741 832 624.673409 832ZM930.620557 620.720771 805.209786 620.720771C805.571725 626.002778 806.748006 631.988963 808.738662 638.679505 810.729318 645.370047 814.167674 651.708361 819.05383 657.694636 823.939994 663.68091 830.454771 668.698742 838.598368 672.74828 846.741965 676.79782 856.966547 678.822559 869.272429 678.822559 888.09319 678.822559 902.118061 673.892759 911.347469 664.033012 920.576883 654.173266 927.001178 639.735996 930.620557 620.720771L930.620557 620.720771ZM805.209786 573.182943 1007.71289 573.182943C1009.16064 594.310972 1007.350976 614.558363 1002.283853 633.925722 997.216723 653.293082 988.982765 670.54738 977.581728 685.689133 966.180691 700.830887 951.612922 712.89129 933.877978 721.870701 916.143034 730.850114 895.33193 735.339752 871.444045 735.339752 850.089722 735.339752 830.635866 731.642403 813.081888 724.247593 795.527917 716.852783 780.417248 706.729087 767.749427 693.876204 755.081613 681.02332 745.30944 665.793761 738.432627 648.18707 731.555808 630.58038 728.117453 611.565439 728.117453 591.141678 728.117453 570.013649 731.465325 550.64658 738.161171 533.03989 744.857018 515.433199 754.357741 500.291673 766.663622 487.614856 778.969498 474.938038 793.98969 465.166472 811.724634 458.299862 829.459578 451.433253 849.36585 448 871.444045 448 903.29456 448 930.439475 455.042571 952.87961 469.127923 975.319744 483.213276 991.968627 506.629823 1002.826752 539.378267L934.963782 539.378267C932.430221 530.927055 925.55351 522.916131 914.33344 515.345254 903.113376 507.774378 889.721882 503.988996 874.158566 503.988996 852.442304 503.988996 835.793421 509.446988 824.211418 520.363136 812.629414 531.279284 806.295597 548.885711 805.209786 573.182943ZM0 320 1024 320 1024 256 0 256 0 320ZM0 128 1024 128 1024 64 0 64 0 128ZM0-64 768-64 768-128 0-128 0-64Z"  horiz-adv-x="1024" />

    
    <glyph glyph-name="shijian" unicode="&#58931;" d="M544.269755 345.238707l-67.805709 0c-0.883445 0-1.600415 0.71697-1.600415 1.600415L474.863631 708.604385c0 0.883445 0.71697 1.600415 1.599394 1.600415l67.805709 0c0.883445 0 1.600415-0.71697 1.600415-1.600415L545.869149 346.839122C545.869149 345.954655 545.153201 345.238707 544.269755 345.238707zM477.471072 346.706349l0 52.21009c0 0.680202 0.551515 1.231717 1.231717 1.231717l354.690551 0c0.680202 0 1.231717-0.551515 1.231717-1.231717l0-52.21009c0-0.680202-0.551515-1.231717-1.231717-1.231717L478.702789 345.474632C478.021566 345.473611 477.471072 346.025126 477.471072 346.706349zM512.262478 896c-282.350163 0-511.235028-228.888951-511.235028-511.235028 0-282.350163 228.885887-511.235028 511.235028-511.235028 282.345056 0 511.235028 228.885887 511.235028 511.235028C1023.497507 667.113092 794.605492 896 512.262478 896zM512.262478-69.666051c-250.978149 0-454.431023 203.456959-454.431023 454.431023S261.284329 839.197016 512.262478 839.197016c250.975085 0 454.431023-203.456959 454.431023-454.431023S763.236542-69.666051 512.262478-69.666051z"  horiz-adv-x="1024" />

    
    <glyph glyph-name="weixinzhifu" unicode="&#58933;" d="M390.21952 264.90752c-61.26464-34.01984-70.35136 19.09888-70.35136 19.09888l-76.78208 178.46656c-29.54368 84.80512 25.56928 38.23744 25.56928 38.23744s47.2896-35.63392 83.17952-57.34784c35.87072-21.71392 76.75776-6.3744 76.75776-6.3744l501.9648 230.7776C837.94688 782.5472 684.96256 857.6 511.76576 857.6 229.11104 857.6 0 657.86752 0 411.47136c0-141.72544 75.8656-267.8656 194.0352-349.62176l-21.31072-122.01856c0 0-10.38848-35.6224 25.61536-19.10016 24.53376 11.26528 87.0784 51.63392 124.30976 76.20224 58.53056-20.31616 122.2976-31.5968 189.14432-31.5968 282.63168 0 511.79008 199.73248 511.79008 446.13376 0 71.36896-19.31008 138.76864-53.51552 198.59456C810.14144 514.2208 438.15808 291.48288 390.21952 264.90752L390.21952 264.90752 390.21952 264.90752zM390.21952 264.90752"  horiz-adv-x="1024" />

    
    <glyph glyph-name="dingwei" unicode="&#58957;" d="M512 827.808922c-171.531702 0-310.666552-139.133827-310.666552-310.666552 0-232.999658 310.666552-576.951291 310.666552-576.951291s310.666552 343.951633 310.666552 576.951291C822.665529 688.675094 683.531702 827.808922 512 827.808922zM512 406.190395c-61.245899 0-110.951975 49.706075-110.951975 110.951975S450.754101 628.095367 512 628.095367 622.951975 578.388269 622.951975 517.142369 573.245899 406.190395 512 406.190395z"  horiz-adv-x="1024" />

    
    <glyph glyph-name="xiazai5" unicode="&#58885;" d="M993.924741-44.790519l-172.86637 172.86637C888.452741 207.435852 929.185185 310.139259 929.185185 422.418963c0 251.354074-203.757037 455.111111-455.111111 455.111111s-455.111111-203.757037-455.111111-455.111111 203.757037-455.111111 455.111111-455.111111c111.767704 0 214.072889 40.353185 293.281185 107.216593l172.942222-172.942222c14.810074-14.810074 38.817185-14.810074 53.627259 0C1008.734815-83.607704 1008.734815-59.600593 993.924741-44.790519zM474.074074 43.159704c-209.464889 0-379.259259 169.79437-379.259259 379.259259s169.79437 379.259259 379.259259 379.259259 379.259259-169.79437 379.259259-379.259259S683.538963 43.159704 474.074074 43.159704z"  horiz-adv-x="1024" />

    
    <glyph glyph-name="weixinzhifu1" unicode="&#58895;" d="M843.854107 100.76931l23.606651-78.616522-85.744873 47.359634c-31.218002-7.887644-62.661132-15.70775-93.737918-15.70775-148.71095 0-265.754666 102.121865-265.754666 228.069369 0 125.72033 117.043716 228.155327 265.754666 228.155327 140.42217 0 265.531586-102.434997 265.531586-228.155327C953.436898 211.01418 906.683061 148.181133 843.854107 100.76931zM605.189426 386.671852c-18.741853 0-33.933857-15.285125-33.933857-34.137495 0-18.856463 15.192004-34.140565 33.933857-34.140565 18.741853 0 33.93488 15.285125 33.93488 34.140565C639.123282 371.386728 623.930255 386.671852 605.189426 386.671852zM777.721921 386.671852c-18.741853 0-33.933857-15.285125-33.933857-34.137495 0-18.856463 15.192004-34.140565 33.933857-34.140565 18.742876 0 33.93488 15.285125 33.93488 34.140565C811.656801 371.386728 796.464797 386.671852 777.721921 386.671852zM402.615731 278.092925c0-22.994714 3.542686-45.00296 9.650801-66.013483-9.727549-0.615007-19.457144-1.060145-29.254278-1.060145l0-0.005117-0.00614 0c-39.060621 0-70.353324 7.894807-109.429295 15.70161l-109.262496-55.085596 31.29168 94.539166C117.328195 321.254957 70.490447 392.127098 70.490447 478.471628c0 149.618623 140.731208 267.375583 312.589344 267.375583 153.702638 0 288.237727-94.163613 315.38297-220.799802-10.109242 1.149173-20.139689 1.824555-30.15888 1.824555C519.801686 526.870942 402.687362 415.414477 402.615731 278.092925zM278.111089 615.68778c-23.404036 0-42.37511-19.087731-42.37511-42.629913 0-23.545252 18.971074-42.63196 42.37511-42.63196 23.405059 0 42.377156 19.086707 42.377156 42.63196C320.488245 596.600049 301.516148 615.68778 278.111089 615.68778zM498.688833 616.101195c-23.404036 0-42.37511-19.087731-42.37511-42.632983 0-23.543206 18.971074-42.629913 42.37511-42.629913 23.405059 0 42.377156 19.086707 42.377156 42.629913C541.065989 597.014488 522.093892 616.101195 498.688833 616.101195z"  horiz-adv-x="1024" />

    
    <glyph glyph-name="date-2" unicode="&#58905;" d="M531.090-109.714c-272.677 0-494.519 221.842-494.519 494.519s221.842 494.519 494.519 494.519 494.519-221.842 494.519-494.519c-0.073-272.677-221.915-494.519-494.519-494.519zM531.090 806.107c-232.375 0-421.376-189.001-421.376-421.303 0-232.375 189.001-421.376 421.376-421.376s421.376 189.001 421.376 421.376c-0.073 232.302-189.001 421.303-421.376 421.303zM714.459 88.722l-239.031 243.785v380.635h73.143v-350.793l218.112-222.501z"  horiz-adv-x="1026" />

    
    <glyph glyph-name="geren4" unicode="&#58899;" d="M602.909499 301.450912c90.756003 35.82902 154.996097 124.260072 154.996097 227.751121 0 135.215588-109.606327 244.848521-244.824985 244.848521-135.215588 0-244.846474-109.632933-244.846474-244.848521 0-103.491049 64.25442-191.922101 155.016563-227.751121C261.35445 273.152403 129.105427 169.857828 72.586179 33.176866l880.966353 0C897.042493 169.858852 764.804726 273.152403 602.909499 301.450912z"  horiz-adv-x="1024" />

    
    <glyph glyph-name="dengluyemianbangzhu" unicode="&#58952;" d="M527.626397 847.276299c-246.716055 0-446.718181-200.002127-446.718181-446.718181 0-246.715031 200.002127-446.718181 446.718181-446.718181s446.718181 200.00315 446.718181 446.718181C974.344578 647.274172 774.342452 847.276299 527.626397 847.276299zM527.626397 43.182754c-197.373253 0-357.375364 160.001087-357.375364 357.373317s160.002111 357.37434 357.375364 357.37434c197.37223 0 357.372294-160.002111 357.372294-357.37434C884.999714 203.185888 724.998627 43.182754 527.626397 43.182754zM376.716362 499.66123c0.963954 29.496801 4.716418 52.599985 11.246135 69.287039s17.526165 31.92306 33.010835 45.708018c15.474436 13.784958 32.763195 23.942295 51.875484 30.472012 19.102057 6.529717 38.815027 9.795087 59.129702 9.795087 43.043329 0 78.231759-12.220323 105.564267-36.639478 27.319206-24.430412 40.992623-57.202816 40.992623-98.308003 0-20.802792-4.114714-38.702464-12.334933-53.688783-8.229428-14.997576-26.117844-35.31225-53.688783-60.945047-29.995151-28.544103-48.372707-49.586348-55.140855-63.120596-6.779404-13.546527-10.157337-36.037774-10.157337-67.474764l-50.061163 0c0.962931 28.535917 5.554506 52.599985 13.784958 72.192206 8.218172 19.589151 26.233478 43.642986 54.051033 72.189136 27.808346 28.53387 45.219901 48.722678 52.237735 60.581774 7.006578 11.846816 10.520611 26.718525 10.520611 44.620243 0 27.081799-8.831132 48.847521-26.482141 65.297169-17.663288 16.437367-41.479717 24.667819-71.464635 24.667819-64.821331 0-100.122325-38.214347-105.926518-114.632807L376.716362 499.66123 376.716362 499.66123zM552.294217 147.05652l-55.865355 0 0 59.491952 55.865355 0L552.294217 147.05652z"  horiz-adv-x="1024" />

    
    <glyph glyph-name="store" unicode="&#59038;" d="M626.008079 418.205033c-5.233188 0-9.475815 4.242627-9.475815 9.475815L616.532263 587.443505c0 5.233188 4.242627 9.475815 9.475815 9.475815 5.232165 0 9.474792-4.242627 9.474792-9.475815l0-159.76368C635.482871 422.446637 631.240243 418.205033 626.008079 418.205033zM394.489144 418.205033c-5.233188 0-9.475815 4.242627-9.475815 9.475815L385.013329 587.443505c0 5.233188 4.242627 9.475815 9.475815 9.475815 5.233188 0 9.475815-4.242627 9.475815-9.475815l0-159.76368C403.96496 422.446637 399.723356 418.205033 394.489144 418.205033zM755.505431 30.273746 297.859363 30.273746c-23.2444 0-42.077328 7.461949-55.974849 22.180162-26.302039 27.854395-24.944112 71.849398-24.734334 76.290547L217.15018 270.514319c0 5.231141 4.242627 9.475815 9.475815 9.475815 5.233188 0 9.475815-4.243651 9.475815-9.475815l0-142.011364c0-0.182149-0.005117-0.361227-0.016373-0.542352-0.020466-0.38067-1.889023-39.838334 19.638269-62.558801 10.169617-10.733459 24.346501-16.177448 42.135656-16.177448L755.111458 49.224354c3.796466 0.385786 47.230698 6.411013 44.347021 78.902024-0.004093 0.125867-0.007163 0.249687-0.007163 0.375553L799.451316 270.514319c0 5.231141 4.242627 9.475815 9.475815 9.475815 5.232165 0 9.475815-4.243651 9.475815-9.475815l0-141.825123c1.851161-47.708582-14.650675-71.882144-28.831652-83.761706-15.977903-13.385868-32.761148-14.5903-33.467229-14.635325C755.903497 30.278863 755.704976 30.273746 755.505431 30.273746zM797.705556 338.00034c-13.653975 0-28.498054 2.695389-44.440142 8.084119-35.833113 12.111852-78.227666 38.280862-126.007879 77.778434-4.033873 3.333932-4.600785 9.30697-1.26583 13.33982 3.333932 4.033873 9.307993 4.599761 13.33982 1.26583 45.976124-38.006616 86.340437-63.044872 119.968325-74.420967 27.157523-9.188266 49.937342-9.447163 67.708078-0.775666 52.016701 25.38004 49.978275 120.391974 49.951669 121.348766-0.001023 0.029676-0.002047 0.066515-0.002047 0.096191-1.267876 68.958558-30.751375 129.146359-55.261605 167.494759-26.796296 41.922808-53.688783 67.676355-53.957913 67.931159-3.791349 3.604084-3.945869 9.600659-0.344854 13.394055 3.601015 3.793396 9.593496 3.953032 13.388938 0.353041 1.154289-1.093914 28.566616-27.288506 56.590879-71.01745 25.948999-40.491203 57.163931-104.19713 58.531068-177.756473 0.143263-5.095042 2.193968-108.193141-60.539818-138.853441C824.094576 340.756103 811.50791 338.00034 797.705556 338.00034zM508.518201 325.587636c-0.796132 0-1.589195 0.01228-2.38635 0.033769-58.880015 1.601474-102.049211 62.181201-117.069299 86.559425-44.654013-35.43914-84.424808-59.068304-118.323872-70.28374-32.228005-10.664897-59.960627-10.458189-82.427314 0.618077-62.400189 30.755468-60.358693 132.385123-60.21543 137.444349 1.366114 72.76628 31.033807 138.145313 55.685253 180.178639 26.624381 45.398979 52.634778 73.414033 53.728692 74.583672 3.574409 3.822049 9.570983 4.024663 13.393032 0.450255 3.821025-3.573385 4.02364-9.56689 0.453325-13.389962l0 0c-0.255827-0.274246-25.89988-27.942399-51.470255-71.64576-23.404036-39.998993-51.569516-102.062514-52.843532-170.58105 0-0.034792-0.001023-0.068562-0.002047-0.104377-0.026606-0.936325-2.057869-94.498234 49.685609-119.957069 17.84953-8.78406 40.761356-8.648984 68.095911 0.405229 33.862225 11.211343 74.540693 36.0828 120.905674 73.921593 2.201132 1.795902 5.092995 2.512217 7.879458 1.944282 2.785439-0.566912 5.16872-2.353604 6.493901-4.867868 0.445138-0.842181 45.483914-84.714404 106.594737-86.337367 0.595564-0.01535 1.198292-0.023536 1.794879-0.023536 36.275181 0 72.135924 29.190833 106.628506 86.810135 2.688225 4.490268 8.505721 5.952572 12.997012 3.2623 4.490268-2.687202 5.950526-8.506744 3.2623-12.997012C593.223395 357.882156 551.89922 325.589682 508.518201 325.587636zM771.716648 718.776669 244.429477 718.776669c-5.233188 0-9.475815 4.242627-9.475815 9.475815 0 5.233188 4.242627 9.475815 9.475815 9.475815l527.286148 0c5.232165 0 9.475815-4.242627 9.475815-9.475815C781.19144 723.019297 776.948813 718.776669 771.716648 718.776669z"  horiz-adv-x="1024" />

    
    <glyph glyph-name="tuangou" unicode="&#58929;" d="M815.424-128 208.576-128C93.546667-128 0-34.410667 0 80.554667L0 687.424C0 802.432 93.546667 896 208.576 896l606.848 0C930.410667 896 1024 802.432 1024 687.424l0-606.848C1024-34.410667 930.410667-128 815.424-128zM208.576 782.250667c-52.288 0-94.826667-42.602667-94.826667-94.826667l0-606.848c0-52.309333 42.538667-94.72 94.826667-94.72l606.848 0c52.288 0 94.741333 42.410667 94.741333 94.72L910.165333 687.424c0 52.224-42.453333 94.826667-94.741333 94.826667L208.576 782.250667zM595.157333 617.386667 595.157333 687.146667c1.749333 26.837333 16.085333 42.005333 42.922667 45.610667 28.586667-1.792 43.818667-16.106667 45.610667-42.922667l0-72.448 104.618667 0c23.232-1.792 35.776-16.085333 37.568-42.922667-1.792-26.837333-15.210667-41.173333-40.234667-42.922667l-101.952 0 0-351.445333c0-53.653333-25.941333-80.469333-77.781333-80.469333-69.76-1.749333-115.370667 1.813333-136.832 10.730667-23.253333 8.981333-32.192 26.837333-26.837333 53.674667 3.562667 25.024 24.149333 33.941333 61.717333 26.816 25.024-5.354667 47.36-8.042667 67.072-8.042667 17.856-1.792 25.898667 6.250667 24.149333 24.149333L595.178667 451.072c-69.76-93.013333-174.378667-177.984-313.877333-254.869333-39.36-16.106667-65.322667-10.730667-77.802667 16.106667-8.96 26.816-1.792 47.36 21.461333 61.696 146.645333 69.76 255.744 155.605333 327.296 257.557333L235.669333 531.562667c-23.274667 1.770667-34.88 16.085333-34.88 42.922667 1.770667 26.816 14.293333 41.109333 37.546667 42.922667L595.157333 617.408z"  horiz-adv-x="1024" />

    
    <glyph glyph-name="toubaoshengming" unicode="&#58898;" d="M511.999488 768.242268c-211.867362 0-384.242268-172.372859-384.242268-384.242268 0-211.82029 172.374906-384.242268 384.242268-384.242268 211.822336 0 384.242268 172.421978 384.242268 384.242268C896.241756 595.869409 723.821825 768.242268 511.999488 768.242268zM511.999488 54.660156c-181.848675 0-329.36338 147.491169-329.36338 329.339844 0 181.873234 147.515728 329.364403 329.36338 329.364403 181.850721 0 329.36338-147.491169 329.36338-329.364403C841.362868 202.151325 693.85021 54.660156 511.999488 54.660156zM484.559533 171.28841l54.878888 0L539.438421 445.751413 484.559533 445.751413 484.559533 171.28841zM511.999488 574.479239c-10.787694 0-21.48329-4.431939-29.127388-12.0525-7.599072-7.622608-12.054547-18.339694-12.054547-29.104875 0-10.787694 4.455475-21.50478 12.054547-29.127388 7.644097-7.599072 18.339694-12.054547 29.127388-12.054547s21.482267 4.455475 29.102828 12.054547c7.622608 7.622608 12.054547 18.339694 12.054547 29.127388 0 10.766205-4.431939 21.48329-12.054547 29.104875C533.481755 570.046277 522.787182 574.479239 511.999488 574.479239z"  horiz-adv-x="1024" />

    
    <glyph glyph-name="pinglun11" unicode="&#58980;" d="M291.636 510.596c-30.49 0-55.207-25.633-55.207-57.266 0-31.637 24.717-57.272 55.207-57.272 30.486 0 55.203 25.635 55.203 57.272C346.839 484.962 322.122 510.596 291.636 510.596L291.636 510.596zM512.461 510.596c-30.49 0-55.208-25.633-55.208-57.266 0-31.637 24.722-57.272 55.208-57.272 30.486 0 55.204 25.635 55.204 57.272C567.665 484.962 542.947 510.596 512.461 510.596L512.461 510.596zM733.287 510.596c-30.492 0-55.208-25.633-55.208-57.266 0-31.637 24.716-57.272 55.208-57.272 30.486 0 55.202 25.635 55.202 57.272C788.489 484.962 763.773 510.596 733.287 510.596L733.287 510.596zM843.697 796.923 181.221 796.923c-60.972 0-110.41-51.287-110.41-114.539l0-429.487c0-63.256 50.543-121.56 112.92-121.56l168.257 0c29.33-31.245 150.716-156.912 150.716-156.912 5.389-5.606 14.124-5.606 19.514 0 0 0 88.87 100.764 146.775 156.912l172.193 0c62.376 0 112.92 58.308 112.92 121.56L954.106 682.385C954.107 745.637 904.673 796.923 843.697 796.923zM899.451 252.702c0-31.669-26.565-64.899-57.799-64.899L672.075 187.803c-20.543 0-39.009-21.123-39.009-21.123L514 43.185 394.955 166.68c0 0-22.676 21.123-42.112 21.123L183.267 187.803c-31.235 0-57.794 33.23-57.794 64.899L125.473 682.795c0 31.677 24.751 57.353 55.28 57.353l663.411 0c30.53 0 55.287-25.676 55.287-57.353L899.451 252.702zM898.905 252.897"  horiz-adv-x="1024" />

    
    <glyph glyph-name="yanjing1" unicode="&#59009;" d="M512.338944 157.713408c165.547008 0 390.09792 169.18016 405.70368 215.688192-6.089728 50.951168-217.427968 235.211776-405.70368 235.211776-179.0976 0-405.809152-146.766848-405.830656-236.33408C111.219712 328.153088 328.777728 157.713408 512.338944 157.713408M512.338944 112.601088C324.273152 112.601088 61.44 289.601536 61.44 371.8912c0 130.400256 264.404992 281.83552 450.898944 281.83552 204.079104 0 450.905088-198.331392 450.905088-281.83552C963.244032 302.406656 693.465088 112.601088 512.338944 112.601088L512.338944 112.601088 512.338944 112.601088 512.338944 112.601088zM512.338944 112.601088M512.338944 270.4384c62.134272 0 112.729088 50.593792 112.729088 112.729088 0 62.1312-50.594816 112.72192-112.729088 112.72192-62.133248 0-112.723968-50.59072-112.723968-112.72192C399.614976 321.032192 450.205696 270.4384 512.338944 270.4384M512.338944 225.32608c-87.181312 0-157.837312 70.660096-157.837312 157.841408 0 87.17824 70.656 157.835264 157.837312 157.835264 87.186432 0 157.840384-70.656 157.840384-157.835264C670.179328 295.986176 599.525376 225.32608 512.338944 225.32608L512.338944 225.32608 512.338944 225.32608 512.338944 225.32608zM512.338944 225.32608"  horiz-adv-x="1024" />

    
    <glyph glyph-name="dizhi1" unicode="&#58901;" d="M203.688623 348.45417l-25.845197 49.304125C185.149233 380.564076 193.817327 364.090771 203.688623 348.45417zM789.838632 348.299113c6.271757 9.92164 12.04713 20.184606 17.304975 30.754666L789.838632 348.299113zM496.811957 738.840584c-112.069017 0-202.920386-90.850362-202.920386-202.920386 0-112.069017 90.850362-202.920386 202.920386-202.920386s202.920386 90.851369 202.920386 202.920386C699.732343 647.990222 608.881982 738.840584 496.811957 738.840584zM496.811957 387.112721c-82.184282 0-148.807478 66.624203-148.807478 148.808484 0 82.185289 66.623196 148.808484 148.807478 148.808484 82.185289 0 148.807478-66.623196 148.807478-148.808484C645.620442 453.736923 578.997246 387.112721 496.811957 387.112721zM496.811957 879.546832c-191.323324 0-346.421689-155.098365-346.421689-346.422696 0-5.905258 0.15103-11.775277 0.442013-17.608041 2.083202-41.611683 11.512485-81.286159 27.010138-117.758807l25.845197-49.304125c0 0 213.711956-408.347864 231.158899-440.973284 23.45188-43.85699 82.29705-43.85699 107.035703 0.119817 18.424608 32.757319 247.955407 440.697403 247.955407 440.697403l17.304975 30.754666c21.159251 42.536991 33.825602 90.031781 35.793015 140.282359 0.180229 4.577205 0.297025 9.169512 0.297025 13.789005C843.23264 724.449474 688.137295 879.546832 496.811957 879.546832zM756.341268 396.959852l0.003021 0.002014-0.153043-0.280915c-1.007871-1.913042-2.039907-3.810981-3.087046-5.697844 0 0-237.870655-438.960562-246.178292-454.116889-8.308643-15.156326-30.609678-15.245937-38.264866 0-7.655188 15.245937-237.17894 472.355226-237.17894 472.355226l-1.133729 1.866726c-0.506453 1.10453-0.984713 2.224163-1.478077 3.335741l-0.216476 0.431945 0.062426-0.08357c-16.005113 36.198781-24.927943 76.227673-24.927943 118.353864 0 161.834286 131.193396 293.025668 293.025668 293.025668 161.834286 0 293.026675-131.191382 293.026675-293.025668C789.838632 483.969027 777.732097 437.643206 756.341268 396.959852zM506.797029 29.851132 506.797029 71.029863 506.797029 29.851132Z"  horiz-adv-x="1024" />

    
    <glyph glyph-name="shouye" unicode="&#58924;" d="M1016.428071 420.365704c0.003054 0.182214 0.026467 0.35832 0.026467 0.541552 0 0.228022-0.028503 0.446882-0.033592 0.673886-0.011197 0.335925-0.027485 0.668796-0.050898 1.003703-0.519157 8.742189-5.026657 16.394149-11.749225 21.167335L530.825339 869.65191c-0.132334 0.151675-0.242273 0.314548-0.376643 0.463169-5.300486 5.895989-12.537121 8.997695-19.882677 9.24913-0.379697 0.018323-0.76143 0.004072-1.142144 0.007126-0.380715-0.002036-0.762448 0.011197-1.143162-0.007126-7.344538-0.251435-14.581173-3.35314-19.882677-9.24913-0.13437-0.148621-0.244309-0.311494-0.374607-0.463169L11.674914 441.458728c-0.180178-0.162873-0.334907-0.342033-0.508977-0.506941-0.35323-0.333889-0.696281-0.674903-1.031187-1.026098-0.320656-0.335925-0.631131-0.675921-0.932446-1.02508-0.285027-0.329817-0.559875-0.66676-0.829632-1.010828-0.304368-0.388858-0.601611-0.780771-0.883584-1.182863-0.235147-0.334907-0.460115-0.677957-0.681011-1.023044-0.26874-0.421433-0.530354-0.843884-0.775681-1.276514-0.206645-0.364428-0.39802-0.735981-0.588377-1.110588-0.216824-0.426523-0.427541-0.854063-0.62197-1.289748-0.182214-0.4082-0.347122-0.824543-0.509995-1.241904-0.161855-0.419397-0.320656-0.838794-0.463169-1.264299-0.148621-0.443828-0.279937-0.893764-0.406164-1.346753-0.117065-0.424487-0.230058-0.847956-0.327781-1.274478-0.103831-0.454007-0.191375-0.911069-0.272812-1.372202-0.080418-0.455025-0.150657-0.911069-0.208681-1.369148-0.05497-0.434666-0.098742-0.869333-0.133352-1.310107-0.040718-0.506941-0.064131-1.011846-0.077365-1.520823-0.00509-0.230058-0.033592-0.45299-0.033592-0.684065 0-0.186286 0.023413-0.365445 0.028503-0.551731 0.009162-0.519157 0.0397-1.037295 0.078382-1.556452 0.030539-0.416343 0.063113-0.831668 0.111975-1.242922 0.058023-0.485564 0.137424-0.968074 0.221914-1.450584 0.074311-0.43263 0.147603-0.863225 0.241255-1.287712 0.101795-0.455025 0.224968-0.904961 0.349158-1.355915 0.119101-0.43263 0.235147-0.865261 0.375625-1.289748 0.142514-0.436702 0.309458-0.867297 0.474367-1.297891 0.161855-0.420415 0.320656-0.84083 0.501851-1.252083 0.18425-0.419397 0.391912-0.828615 0.597539-1.239868 0.204609-0.4082 0.407182-0.815381 0.631131-1.211365 0.21886-0.38784 0.458079-0.766519 0.697298-1.146216 0.254488-0.405146 0.511013-0.80622 0.784843-1.198132 0.245327-0.34814 0.505923-0.687119 0.768555-1.027116 0.310476-0.402092 0.62706-0.798076 0.958913-1.180827 0.123172-0.144549 0.22904-0.298261 0.356284-0.440774 0.159819-0.177124 0.335925-0.328799 0.497779-0.500833 0.339997-0.359338 0.686101-0.709514 1.044421-1.050529 0.330835-0.314548 0.664724-0.618916 1.006756-0.914123 0.336943-0.290117 0.679993-0.571072 1.031187-0.84592 0.381733-0.300296 0.767537-0.591431 1.162503-0.869333 0.34305-0.241255 0.693227-0.469277 1.046457-0.696281 0.413289-0.26365 0.828615-0.520174 1.253101-0.76143 0.371553-0.211734 0.752268-0.407182 1.135019-0.601611 0.418379-0.211734 0.836758-0.419397 1.263281-0.608736 0.416343-0.187304 0.842866-0.356284 1.270407-0.52221 0.409218-0.158801 0.819453-0.31353 1.234778-0.451972 0.454007-0.151675 0.914123-0.286045 1.377292-0.414307 0.413289-0.115029 0.825561-0.224968 1.241904-0.31862 0.464187-0.106885 0.933464-0.197483 1.405794-0.279937 0.44281-0.078382 0.886638-0.147603 1.332502-0.204609 0.445864-0.055987 0.893764-0.100777 1.344717-0.135388 0.494726-0.0397 0.987415-0.063113 1.483159-0.075329 0.236165-0.006108 0.466223-0.035628 0.704424-0.035628l100.987143 0c-0.117065-1.481123-0.194429-2.973444-0.194429-4.485105l0-448.245858 0-0.001018c0-30.945801 25.086458-56.031241 56.031241-56.031241l196.124104 0c0.018323 0 0.036646 0.001018 0.053952 0.001018 30.920352 0.029521 55.97729 25.101727 55.97729 56.030223l0 232.846794 0 23.870003c0 15.472901 12.542211 28.015112 28.015112 28.015112l84.046353 0c15.471883 0 28.015112-12.542211 28.015112-28.015112l0-23.870003 0-232.846794c0-30.928496 25.056937-56.000703 55.975254-56.030223 0.020359 0 0.037664-0.001018 0.055987-0.001018l196.125122 0c30.943765 0 56.030223 25.08544 56.030223 56.031241l0 0.001018 0 448.245858c0 1.608367-0.083472 3.195358-0.215806 4.769114l97.039517 0c8.9356-1.270407 18.321136 1.785491 24.806521 9.002785 4.182773 4.653068 6.488439 10.324089 7.025918 16.11014 0.003054 0.033592 0.006108 0.067185 0.009162 0.100777C1016.382264 418.858114 1016.421964 419.6114 1016.428071 420.365704zM859.581722 448.923385c-6.432451 0-12.340656-2.191655-17.07007-5.836948-6.564785-5.060249-10.826959-12.947357-10.928754-21.853436-0.002036-0.108921-0.016287-0.214788-0.016287-0.324727s0.014251-0.215806 0.016287-0.324727l0-451.256965c0-15.472901-12.542211-28.015112-28.015112-28.015112L663.474922-58.688531c-15.25404 0-27.633379 12.196107-27.982537 27.366675L635.492385 224.673212c0 0.435684-0.022395 0.865261-0.032575 1.297891-0.692209 30.34419-25.487532 54.73335-55.998667 54.73335L439.384568 280.704453c-30.511135 0-55.306458-24.38916-55.998667-54.73335-0.01018-0.433648-0.032575-0.863225-0.032575-1.297891l0-255.996086c-0.34814-15.16955-12.729515-27.366675-27.982537-27.366675L215.276909-58.689549c-15.472901 0-28.015112 12.542211-28.015112 28.015112L187.261797 420.339237c0.001018 0.095688 0.014251 0.189339 0.014251 0.285027 0 0.095688-0.013233 0.189339-0.014251 0.284009-0.090598 9.058773-4.489177 17.068034-11.236176 22.123194-4.677499 3.505834-10.468639 5.607909-16.764684 5.607909l-55.781842 0 405.94478 364.905965L915.05207 448.923385 859.581722 448.923385z"  horiz-adv-x="1032" />

    
    <glyph glyph-name="gou1" unicode="&#59156;" d="M421.775 5.325c60.131 109.856 270.225 306.337 420.244 406.631l58.95 36c23.231 12.544 43.537 21.15 59.738 24.75-46.238 105.412-5.681 191.081 0.9 289.913l0 0c-55.744-28.519-111.994-68.794-166.219-114.694l-62.775-56.419c-180.787-171.281-324.844-382.387-324.844-382.387l-105.581 204.3-239.85-116.606c101.475-36.169 256.725-165.15 359.156-291.431z"  horiz-adv-x="1024" />

    
    <glyph glyph-name="z-like" unicode="&#59071;" d="M947.121 365.934c-3.906 22.372-12.856 42.996-26.594 61.297-13.735 18.296-31.052 32.633-51.47 42.613-19.471 9.518-41.242 14.548-62.955 14.548h-142.414c22.272 75.258 32.696 141.020 30.993 195.608-1.452 46.519-11.659 85.211-30.334 114.994-31.381 50.045-75.369 57.293-77.227 57.577l-0.679 0.104h-0.686c-28.403 0-48.132-8.022-58.641-23.841-8.872-13.356-9.042-29.039-9.156-39.418-0.032-2.922-0.062-5.682-0.294-7.321l-0.091-0.631v-0.639c0-138.513-144.032-253.351-206.193-296.434l-194.066 0c-23.462 0-42.548-19.087-42.548-42.548v-483.968c0-23.462 19.086-42.549 42.548-42.549l630.251-0c16.597 0 32.408 5.274 45.732 15.257 13.205 9.923 22.622 23.52 27.255 39.337l123.028 331.471c6.046 20.859 7.269 43.181 3.54 64.541zM111.606-42.125v483.968c0 3.094 2.615 5.709 5.709 5.709h157.476v-495.387h-157.476c-3.096 0-5.709 2.617-5.709 5.71zM908.46 312.563l-122.442-329.822c-0.302-0.814-0.576-1.638-0.82-2.469-2.414-8.247-7.133-15.053-14.023-20.233-6.989-5.223-14.932-7.873-23.608-7.873l-435.939 0v495.395c7.413 0.050 14.642 2.326 20.738 6.552 66.527 46.11 220.948 169.864 222.040 325.059 0.317 3.239 0.352 6.46 0.389 9.845 0.070 6.397 0.166 15.158 3.005 19.431 2.826 4.254 12.35 7.002 25.175 7.348 6.822-1.787 31.144-10.046 50.161-40.375 15.158-24.176 23.476-56.668 24.722-96.571 1.579-50.626-8.345-112.535-29.497-184.006-3.297-11.143-1.144-23.189 5.81-32.499 6.955-9.31 17.894-14.794 29.516-14.794h142.414c16.139 0 32.315-3.736 46.779-10.807 15.135-7.397 27.983-18.040 38.185-31.63 10.217-13.612 16.867-28.927 19.764-45.517 2.714-15.555 1.893-31.796-2.372-47.034z"  horiz-adv-x="1024" />

    
    <glyph glyph-name="shanchu" unicode="&#58915;" d="M909.050991 726.523097l-217.554898 0 0 31.346939c0 39.5866-32.205493 71.792093-71.793116 71.792093L408.15591 829.662129c-39.5866 0-71.792093-32.205493-71.792093-71.792093l0-31.346939L113.349581 726.523097c-11.013845 0-19.942191-8.940626-19.942191-19.954471s8.928347-19.954471 19.942191-19.954471l84.264149 0 0-640.687918c0-60.479443 49.203632-109.683075 109.683075-109.683075l416.474366 0c60.479443 0 109.683075 49.203632 109.683075 109.683075L833.454246 686.614156l75.595722 0c11.012821 0 19.942191 8.940626 19.942191 19.954471S920.063813 726.523097 909.050991 726.523097zM376.2482 757.869013c0 17.593703 14.314007 31.907711 31.907711 31.907711l211.547067 0c17.593703 0 31.907711-14.314007 31.907711-31.907711l0-31.346939L376.2482 726.522074 376.2482 757.869013zM793.569864 45.925215c0-38.486546-31.312146-69.798692-69.798692-69.798692L307.297828-23.873478c-38.486546 0-69.798692 31.312146-69.798692 69.798692L237.499136 684.957423l556.070728 0L793.569864 45.925215zM510.662539 34.723082c11.012821 0 19.954471 8.92937 19.954471 19.942191L530.61701 601.087247c0 11.013845-8.94165 19.942191-19.954471 19.942191s-19.954471-8.928347-19.954471-19.942191L490.708068 54.665273C490.708068 43.652452 499.649717 34.723082 510.662539 34.723082zM374.562814 94.550679c11.012821 0 19.954471 8.92937 19.954471 19.942191L394.517285 541.25965c0 11.013845-8.94165 19.942191-19.954471 19.942191s-19.954471-8.928347-19.954471-19.942191l0-426.76678C354.608344 103.480049 363.549993 94.550679 374.562814 94.550679zM649.832182 94.550679c11.012821 0 19.954471 8.92937 19.954471 19.942191L669.786653 541.25965c0 11.013845-8.94165 19.942191-19.954471 19.942191s-19.954471-8.928347-19.954471-19.942191l0-426.76678C629.877711 103.480049 638.81936 94.550679 649.832182 94.550679z"  horiz-adv-x="1024" />

    
    <glyph glyph-name="iconweixin" unicode="&#58918;" d="M693.260274 550.9258c11.780301 0 23.36515-0.89437 35.017538-2.172479-31.368428 146.074913-187.494255 254.578116-365.772614 254.578116-199.272509 0-362.504174-135.77022-362.504174-308.285319 0-99.541087 54.283324-181.286879 145.054677-244.786099l-36.233226-109.015879 126.744659 63.503313c45.321208-8.897647 81.681324-18.11866 126.939087-18.11866 11.394515 0 22.661116 0.512676 33.800827 1.343601-7.04137 24.26259-11.202133 49.613978-11.202133 76.05007C385.16529 422.389332 521.129938 550.9258 693.260274 550.9258L693.260274 550.9258zM498.4064 649.187755c27.398 0 45.384653-17.987676 45.384653-45.257763 0-27.139104-17.98563-45.321208-45.384653-45.321208-27.081799 0-54.346769 18.182105-54.346769 45.321208C444.059632 631.264547 471.26218 649.187755 498.4064 649.187755L498.4064 649.187755zM244.721631 558.608783c-27.206642 0-54.605665 18.182105-54.605665 45.321208 0 27.270087 27.399023 45.257763 54.605665 45.257763 27.202549 0 45.258787-17.923208 45.258787-45.257763C289.980417 576.790888 271.925203 558.608783 244.721631 558.608783L244.721631 558.608783zM244.721631 558.608783M1024.205685 268.373563c0 144.926764-145.053654 263.031649-307.96707 263.031649-172.509982 0-308.285319-118.169353-308.285319-263.031649 0-145.308457 135.837758-263.026532 308.285319-263.026532 36.106336 0 72.529897 9.025561 108.762099 18.113543l99.410104-54.537104-27.272133 90.638323C969.922361 114.230903 1024.205685 186.62777 1024.205685 268.373563L1024.205685 268.373563zM616.252389 313.759239c-17.986653 0-36.232203 17.923208-36.232203 36.232203 0 18.051121 18.246573 36.228109 36.232203 36.228109 27.525913 0 45.385677-18.176988 45.385677-36.228109C661.637042 331.682447 643.777279 313.759239 616.252389 313.759239L616.252389 313.759239zM815.653835 313.759239c-17.860786 0-36.038798 17.923208-36.038798 36.232203 0 18.051121 18.114566 36.228109 36.038798 36.228109 27.270087 0 45.384653-18.176988 45.384653-36.228109C861.037465 331.682447 842.923922 313.759239 815.653835 313.759239L815.653835 313.759239zM815.653835 313.759239"  horiz-adv-x="1040" />

    
    <glyph glyph-name="biaoqian1" unicode="&#58925;" d="M788.48 266.581333c0 17.066667-5.802667 31.744-17.749333 44.714667L421.205333 660.138667c-12.288 12.288-29.354667 22.869333-49.834667 31.744-21.162667 8.874667-39.936 12.970667-57.002667 12.970667L110.933333 704.853333c-17.066667 0-31.744-6.485333-44.032-18.773333-12.288-12.288-18.773333-26.965333-18.773333-44.032l0-202.752c0-17.066667 4.096-36.522667 12.970667-57.002667 8.874667-21.162667 18.773333-37.546667 31.744-49.834667l349.525333-349.525333c12.288-12.288 26.965333-17.749333 44.032-17.749333 17.066667 0 31.744 5.802667 44.714667 17.749333l239.616 239.616C781.994667 234.837333 788.48 249.514667 788.48 266.581333L788.48 266.581333 788.48 266.581333zM248.490667 503.808c-12.288-12.288-26.965333-18.090667-44.032-18.090667-17.066667 0-31.744 5.802667-44.032 18.090667-12.288 12.288-18.090667 26.965333-18.090667 44.032 0 17.066667 5.802667 31.744 18.090667 44.032 12.288 12.288 26.965333 18.090667 44.032 18.090667 17.066667 0 31.744-5.802667 44.032-18.090667C260.778667 579.584 266.24 564.906667 266.24 547.84 267.264 530.432 260.778667 516.096 248.490667 503.808L248.490667 503.808 248.490667 503.808zM958.122667 311.637333 608.597333 660.138667c-12.288 12.288-29.354667 22.869333-49.834667 31.744C537.6 700.757333 518.826667 704.853333 501.76 704.853333l-109.909333 0c17.066667 0 36.522667-4.096 57.002667-12.970667 21.162667-8.874667 37.546667-18.773333 49.834667-31.744l349.525333-348.501333c12.288-12.970667 18.090667-27.648 18.090667-44.714667s-5.802667-31.744-18.090667-44.032l-229.034667-229.717333c9.898667-9.898667 18.773333-17.066667 25.941333-21.845333 7.168-4.778667 17.066667-6.485333 28.672-6.485333 17.066667 0 31.744 5.802667 44.714667 18.090667l239.616 240.298667c12.288 12.288 17.749333 26.965333 17.749333 44.032S970.069333 298.325333 958.122667 311.637333L958.122667 311.637333 958.122667 311.637333zM958.122667 311.637333"  horiz-adv-x="1024" />

    
    <glyph glyph-name="pinglun" unicode="&#58938;" d="M905.898667 851.968 129.365333 851.968c-71.338667 0-129.365333-58.026667-129.365333-129.365333l0-518.144c0-71.338667 58.026667-129.365333 129.365333-129.365333l253.952 0 134.144-163.84 133.802667 163.84 254.293333 0c71.338667 0 129.365333 58.026667 129.365333 129.365333L1034.922667 722.602667C1035.264 793.941333 977.237333 851.968 905.898667 851.968L905.898667 851.968 905.898667 851.968zM236.885333 397.994667c-34.474667 0-62.464 27.989333-62.464 62.464 0 34.474667 27.989333 62.464 62.464 62.464 34.474667 0 62.464-27.989333 62.464-62.464C299.349333 425.984 271.36 397.994667 236.885333 397.994667L236.885333 397.994667 236.885333 397.994667zM518.144 397.994667c-34.474667 0-62.464 27.989333-62.464 62.464 0 34.474667 27.989333 62.464 62.464 62.464 34.474667 0 62.464-27.989333 62.464-62.464C580.608 425.984 552.618667 397.994667 518.144 397.994667L518.144 397.994667zM799.402667 397.994667c-34.474667 0-62.464 27.989333-62.464 62.464 0 34.474667 27.989333 62.464 62.464 62.464 34.474667 0 62.464-27.989333 62.464-62.464C861.866667 425.984 833.877333 397.994667 799.402667 397.994667L799.402667 397.994667zM799.402667 397.994667"  horiz-adv-x="1035" />

    
    <glyph glyph-name="weixinzhifu2" unicode="&#58914;" d="M342.745666 550.730349c-17.134239 0-34.283828-11.347442-34.299177-28.497031 0-17.149589 17.149589-28.498054 34.299177-28.498054 17.149589 0 28.497031 11.604292 28.497031 28.498054C371.243721 539.382906 359.896278 550.730349 342.745666 550.730349zM502.12663 493.735263c17.150612 0 28.499078 11.347442 28.499078 28.465309 0 17.181311-11.33107 28.528754-28.499078 28.528754-16.892739 0-34.043351-11.347442-34.282804-28.497031C467.843826 505.083729 484.977042 493.735263 502.12663 493.735263zM576.274374 385.291412c-11.347442 0-22.696931-11.347442-22.696931-22.694885 0-11.348466 11.349489-22.695908 22.696931-22.695908 17.149589 0 28.497031 11.347442 28.497031 22.695908C604.771405 373.942947 593.423963 385.291412 576.274374 385.291412zM847.240739 861.349829 174.452729 861.349829c-77.110215 0-139.601478-62.492286-139.601478-139.570779l0-672.736844c0-77.077469 62.492286-139.569756 139.601478-139.569756l672.78801 0c77.093842 0 139.570779 62.491263 139.570779 139.569756L986.811518 721.77905C986.811518 798.857543 924.334581 861.349829 847.240739 861.349829zM416.874991 260.209626c-28.240181 0-51.17759 5.802146-79.690994 11.316743l-79.68997-40.069601 22.693862 68.598354c-56.978712 39.845497-91.037413 91.328032-91.02104 153.835667 0.016373 108.444874 102.642728 193.680141 227.738841 193.680141 111.973234 0 210.064296-68.1174 229.731218-159.925363-7.308453 0.769526-14.617929 1.282203-21.942755 1.282203-108.190071 0-193.682187-80.683601-193.69856-180.056865 0-16.381086 2.532683-32.537044 7.067976-47.666626C430.995593 260.466476 423.942967 260.209626 416.874991 260.209626zM752.821299 180.262806l17.133216-56.994062-62.539358 34.299177c-22.695908-5.545296-45.647643-11.347442-68.343551-11.347442-108.445898 0-193.699584 73.887824-193.699584 165.18311 0 91.037413 85.254709 165.182087 193.699584 165.182087 102.386902 0 193.425338-74.144674 193.425338-165.214832C832.49592 260.209626 798.453592 214.563006 752.821299 180.262806zM701.611987 385.291412c-11.347442 0-22.695908-11.347442-22.695908-22.694885 0-11.348466 11.348466-22.695908 22.695908-22.695908 16.893762 0 28.497031 11.347442 28.497031 22.695908C730.107995 373.942947 718.762599 385.291412 701.611987 385.291412z"  horiz-adv-x="1024" />

    
    <glyph glyph-name="yanjing3" unicode="&#58959;" d="M511.948323 647.192308c-293.14141 0-448.565249-277.992385-448.565249-277.992385s167.818123-247.090585 448.565249-247.090585c280.767592 0 448.604134 247.090585 448.604134 247.090585S822.670134 647.192308 511.948323 647.192308zM512.223592 226.479407c-89.384773 0-161.849178 70.711482-161.849178 157.924799 0 87.212294 72.464405 157.924799 161.849178 157.924799 89.384773 0 161.849178-70.712505 161.849178-157.924799C674.072771 297.190889 601.607342 226.479407 512.223592 226.479407zM511.967766 448.800865c-39.134299 0-70.857814-31.467689-70.857814-70.273507 0-38.805818 31.723515-70.273507 70.857814-70.273507s70.857814 31.467689 70.857814 70.273507C582.82558 417.333176 551.102065 448.800865 511.967766 448.800865z"  horiz-adv-x="1024" />

    
    <glyph glyph-name="zuojiantou1" unicode="&#58955;" d="M650.721435 704.309166c-8.782014 0-17.565051-3.235694-24.26873-9.708106L328.968383 407.426549c-13.408381-12.932544-13.408381-33.9226 0-46.855144l297.485345-287.172465c13.408381-12.9438 35.130102-12.9438 48.538483 0 13.408381 12.932544 13.408381 33.9226 0 46.855144L401.774573 383.998977l273.215592 263.747963c13.408381 12.932544 13.408381 33.9226 0 46.855144C668.286486 701.073472 659.504472 704.31019 650.721435 704.309166z"  horiz-adv-x="1024" />

    
    <glyph glyph-name="xiangxiajiantou" unicode="&#58961;" d="M532.207 177.866l0 0c3.079 1.777 6.39 3.079 9.112 5.802 0.477 0.594 0.827 1.064 1.303 1.539 0.594 0.709 1.539 0.946 2.128 1.54l319.434 331.383c8.519 8.757 12.781 20.121 12.781 31.483 0 11.836-4.733 23.79-13.964 32.666-18.107 17.398-46.871 16.924-64.265-1.183l-288.071-298.956-283.922 300.139c-17.28 18.225-46.04 19.057-64.265 1.777-18.226-17.281-19.057-46.04-1.777-64.265l316.355-334.462c13.844-14.676 35.149-17.399 52.429-9.113 0.945 0.35 1.777 1.182 2.722 1.653l0 0zM532.207 177.866z"  horiz-adv-x="1024" />

    
    <glyph glyph-name="jiufuqianbaoicon05" unicode="&#59026;" d="M992 691.2l-960 0C12.8 691.2 0 704 0 723.2s12.8 32 32 32l960 0c19.2 0 32-12.8 32-32S1011.2 691.2 992 691.2zM665.6 716.8c-19.2 0-32 12.8-32 32L633.6 780.8C633.6 812.8 614.4 832 582.4 832L441.6 832C409.6 832 390.4 812.8 390.4 780.8l0-32c0-19.2-12.8-32-32-32S326.4 729.6 326.4 748.8L326.4 780.8c0 64 51.2 115.2 115.2 115.2l140.8 0c64 0 115.2-51.2 115.2-115.2l0-32C697.6 729.6 684.8 716.8 665.6 716.8zM729.6-128 294.4-128c-64 0-115.2 51.2-115.2 108.8L128 569.6c0 19.2 12.8 32 32 32C172.8 608 192 595.2 192 576l44.8-588.8c0-25.6 25.6-51.2 51.2-51.2l441.6 0c25.6 0 51.2 19.2 51.2 44.8L832 576c0 19.2 19.2 32 32 32 19.2 0 32-19.2 32-32l-44.8-588.8C851.2-76.8 793.6-128 729.6-128zM409.6-128c-19.2 0-32 12.8-32 32L352 569.6c0 19.2 12.8 32 32 32 19.2 0 32-12.8 32-32l25.6-672C441.6-115.2 428.8-128 409.6-128 409.6-128 409.6-128 409.6-128zM614.4-128C614.4-128 614.4-128 614.4-128c-19.2 0-32 12.8-32 32L608 576c0 19.2 12.8 32 32 32 19.2 0 32-12.8 32-32l-25.6-672C646.4-115.2 633.6-128 614.4-128z"  horiz-adv-x="1024" />

    
    <glyph glyph-name="dianhua3" unicode="&#58962;" d="M706.709504-27.947008c-53.997568 0-124.09856 36.25984-173.268992 66.885632-66.076672 40.306688-136.998912 96.698368-200.660992 157.94176l-20.14208 20.158464c-61.247488 63.66208-117.661696 134.600704-157.960192 200.67328-30.623744 49.156096-66.881536 119.273472-66.881536 173.2608 0 58.025984 41.908224 120.076288 59.635712 144.257024 13.70112 18.532352 62.857216 78.974976 103.960576 78.974976 16.922624 0 35.454976-11.286528 59.63776-36.25984 20.946944-21.766144 41.089024-49.168384 54.790144-68.5056 17.727488-25.792512 34.664448-52.3776 46.739456-75.753472 20.158464-37.064704 21.766144-53.194752 21.766144-62.050304 0-17.727488-8.871936-33.845248-27.40224-45.93664-12.091392-8.871936-26.595328-14.505984-40.298496-20.959232-9.660416-4.026368-24.971264-10.469376-30.623744-15.314944 2.41664-8.050688 10.481664-29.011968 34.6624-63.660032 21.753856-32.231424 50.765824-67.684352 76.556288-94.285824 26.585088-25.790464 61.247488-53.997568 94.271488-76.57472 34.676736-23.351296 55.609344-32.23552 63.690752-34.650112 4.831232 5.64224 11.272192 20.965376 15.29856 30.625792 5.634048 13.71136 12.075008 28.209152 20.959232 40.312832 12.075008 18.520064 27.40224 28.207104 45.922304 28.207104 8.884224 0 24.182784-2.441216 62.050304-22.571008 23.379968-12.105728 49.975296-29.007872 75.769856-46.75584 19.32288-12.877824 46.723072-33.839104 68.487168-54.802432 24.987648-24.154112 36.25984-42.698752 36.25984-59.635712 0-41.091072-61.241344-90.261504-79.75936-103.948288C826.791936 13.948928 764.737536-27.947008 706.709504-27.947008L706.709504-27.947008 706.709504-27.947008zM367.429632 232.368128c61.24544-58.836992 128.946176-112.83456 191.803392-151.506944 61.247488-37.095424 114.444288-58.834944 147.478528-58.834944 29.018112 0 70.909952 17.713152 111.224832 47.527936 18.518016 12.914688 34.650112 28.207104 45.922304 41.119744 11.298816 12.88192 14.52032 20.932608 16.130048 24.15616-4.831232 8.884224-29.816832 37.091328-87.844864 77.37344-22.571008 16.130048-46.751744 30.625792-66.881536 41.089024-24.9856 12.908544-35.479552 15.32928-37.89824 16.136192-0.80896-0.806912-3.219456-3.227648-8.054784-10.469376-4.022272-7.274496-8.855552-17.739776-12.879872-28.2112-5.666816-12.101632-11.298816-24.981504-17.741824-35.477504-11.268096-16.101376-24.9856-24.958976-40.286208-24.958976-0.804864 0-0.804864 0-0.804864 0-8.07936 0-31.428608 0.804864-94.283776 43.501568-34.6624 24.184832-72.546304 54.810624-100.755456 82.210816l-0.804864 0.804864c-27.40224 28.207104-58.830848 66.07872-82.194432 100.726784-42.713088 63.66208-43.52 86.235136-43.52 94.30016-0.804864 16.115712 8.050688 29.802496 24.987648 41.089024 10.467328 6.453248 23.363584 12.091392 35.454976 17.727488 10.479616 4.040704 20.946944 8.869888 28.207104 13.70112 7.245824 4.038656 9.660416 6.455296 10.46528 7.26016-0.804864 2.414592-3.221504 12.896256-16.115712 38.672384-10.469376 19.3536-24.973312 43.52-41.091072 66.091008-40.298496 58.830848-68.5056 83.806208-77.361152 87.844864-3.23584-0.804864-11.286528-4.84352-24.182784-16.11776-13.70112-11.28448-28.207104-27.40224-41.10336-45.129728-29.81888-41.10336-47.546368-82.20672-47.546368-112.0256 0-32.233472 21.766144-86.233088 58.832896-147.480576 38.68672-62.84288 92.674048-130.555904 151.504896-191.000576L367.429632 232.368128 367.429632 232.368128zM664.014848 411.25888c-8.884224 0-16.93696 5.648384-18.546688 14.505984-4.028416 25.792512-18.550784 47.546368-41.089024 62.050304-22.573056 15.310848-49.975296 20.156416-77.379584 15.310848-9.660416-1.609728-19.335168 4.845568-20.946944 15.312896-1.622016 9.6768 4.831232 19.351552 14.508032 20.959232 37.062656 6.443008 74.12736-0.804864 103.944192-20.959232 30.625792-20.14208 50.782208-50.765824 57.22112-86.2208 1.609728-9.6768-4.831232-19.351552-14.493696-20.959232C665.624576 411.25888 664.817664 411.25888 664.014848 411.25888L664.014848 411.25888zM773.595136 457.998336c-8.8576 0-16.908288 6.455296-18.518016 15.312896-8.07936 49.168384-37.091328 91.062272-79.792128 120.07424-42.729472 28.209152-95.895552 38.688768-148.287488 29.81888-9.660416-2.414592-19.335168 4.84352-20.946944 14.505984-1.622016 9.6768 4.831232 19.351552 14.508032 20.96128 62.052352 11.272192 124.104704-1.609728 174.87872-35.467264 51.560448-33.841152 85.405696-84.609024 95.899648-143.439872 1.60768-10.479616-4.83328-19.349504-14.524416-21.766144C775.206912 457.998336 774.4 457.998336 773.595136 457.998336L773.595136 457.998336zM919.461888 471.697408c-8.050688 0-16.130048 6.457344-17.737728 15.312896-14.4896 83.818496-62.857216 156.350464-136.18176 203.894784-73.347072 48.351232-162.801664 66.883584-251.424768 50.767872-10.496-1.613824-19.351552 4.829184-21.768192 15.310848-1.609728 9.6768 5.638144 19.337216 15.312896 20.96128 98.322432 16.922624 196.632576-2.428928 278.034432-56.416256 81.375232-53.999616 135.380992-134.58432 152.30976-228.868096 1.613824-9.674752-4.85376-19.349504-15.31904-20.96128C921.882624 471.697408 921.07776 471.697408 919.461888 471.697408L919.461888 471.697408z"  horiz-adv-x="1024" />

    
    <glyph glyph-name="setting" unicode="&#58888;" d="M458.27-21.22l107.499-0.085c9.493 40.32 37.632 73.899 76.715 90.197 38.635 15.957 83.285 12.011 118.101-9.515l76.096 76.181c-21.781 35.221-25.6 78.827-9.429 117.931 16.149 39.083 49.643 67.243 90.005 76.757l0.085 107.605c-40.363 9.429-73.899 37.611-90.091 76.8-16.213 39.083-12.395 82.645 9.408 117.803l-76.224 76.203c-34.837-21.44-79.467-25.344-117.888-9.451-39.125 16.363-67.264 49.899-76.757 90.133h-107.541c-9.493-40.277-37.632-73.835-76.693-90.112-38.549-15.957-83.115-12.011-117.952 9.429l-76.224-76.203c21.803-35.179 25.621-78.741 9.408-117.824-16.149-39.083-49.643-67.243-90.005-76.736l-0.064-107.605c40.341-9.451 73.899-37.611 90.069-76.821 16.171-39.083 12.352-82.688-9.429-117.909l76.096-76.181c34.816 21.504 79.552 25.451 118.037 9.536 39.125-16.299 67.264-49.856 76.779-90.133v0zM603.635-64.015l-183.211 0.171-1.621 19.584c-2.645 32.811-23.211 61.077-53.653 73.771-29.995 12.373-65.536 6.613-90.069-14.315l-14.997-12.821-129.664 129.792 12.736 14.997c21.333 25.088 26.795 59.584 14.229 90.005-12.608 30.507-40.853 51.051-73.707 53.611l-19.669 1.557 0.149 183.381 19.584 1.6c32.853 2.688 61.077 23.232 73.643 53.632 12.587 30.421 7.168 64.832-14.208 89.856l-12.779 14.997 129.792 129.792 14.976-12.757c24.576-20.885 59.968-26.624 90.048-14.187 30.379 12.651 50.944 40.917 53.589 73.728l1.621 19.627h183.189l1.621-19.627c2.645-32.768 23.232-61.035 53.675-73.771 29.888-12.352 65.387-6.656 89.963 14.229l14.976 12.757 129.792-129.792-12.779-14.997c-21.376-25.024-26.795-59.435-14.187-89.835 12.587-30.528 40.832-51.072 73.685-53.632l19.691-1.557-0.171-183.381-19.584-1.6c-32.853-2.688-61.077-23.211-73.621-53.611-12.587-30.443-7.125-64.939 14.208-90.027l12.736-14.997-129.664-129.792-14.997 12.821c-24.491 20.949-59.968 26.752-90.133 14.272-30.379-12.651-50.944-40.96-53.589-73.856l-1.6-19.627zM512.021 554.667c-94.101 0-170.667-76.565-170.667-170.667 0-94.101 76.565-170.667 170.667-170.667 94.101 0 170.667 76.565 170.667 170.667 0 94.101-76.565 170.667-170.667 170.667M512.021 170.667c-117.632 0-213.333 95.701-213.333 213.333 0 117.632 95.701 213.333 213.333 213.333 117.632 0 213.333-95.701 213.333-213.333 0-117.632-95.701-213.333-213.333-213.333z"  horiz-adv-x="1024" />

    
    <glyph glyph-name="buoumaotubiao15" unicode="&#58894;" d="M310.388364 796.834909 310.388364 796.834909c20.619636 0 41.378909-2.699636 61.579636-7.982545 39.354182-10.402909 76.520727-29.975273 110.475636-58.112l29.602909-24.552727 29.672727 24.459636c34.420364 28.346182 71.447273 47.941818 109.800727 58.135273 20.270545 5.236364 41.029818 7.866182 61.696 7.866182 25.297455 0 50.827636-3.956364 75.333818-11.613091 40.471273-13.149091 78.661818-36.212364 109.847273-66.117818 30.254545-30.021818 53.341091-67.118545 66.769455-107.240727l2.722909-7.959273c12.125091-41.565091 12.753455-82.920727 1.722182-123.392-11.008-41.704727-34.746182-82.408727-68.770909-117.922909l-2.234182-1.559273-2.839273-2.839273L512.139636-25.157818 126.464 359.796364c-35.770182 35.746909-60.672 77.428364-72.145455 120.925091-11.659636 42.728727-10.193455 86.900364 4.212364 130.932364 13.381818 39.819636 36.933818 77.032727 67.933091 107.403636 31.511273 30.580364 69.236364 53.341091 109.381818 65.954909C260.235636 792.855273 285.323636 796.834909 310.388364 796.834909M310.365091 843.380364c-29.090909 0-58.903273-4.445091-88.762182-14.056727-48.128-15.104-92.229818-42.589091-127.534545-76.869818-35.746909-35.025455-63.720727-78.615273-79.639273-125.998545-17.850182-54.434909-18.618182-108.125091-5.003636-157.998545C23.272727 415.813818 52.736 367.662545 93.579636 326.865455l390.609455-389.864727c7.912727-8.285091 18.059636-12.381091 28.136727-12.381091 9.821091 0 19.572364 3.909818 27.042909 11.636364l389.329455 388.840727 2.513455 1.768727c40.075636 40.797091 69.538909 88.948364 83.432727 141.614545 13.591273 49.896727 12.823273 103.563636-5.050182 157.998545l-0.279273 0c-15.872 47.383273-43.101091 90.717091-78.103273 125.486545-36.258909 34.792727-80.128 61.719273-128.256 77.358545-30.161455 9.402182-60.253091 13.870545-89.716364 13.870545-24.971636 0-49.501091-3.211636-73.309091-9.332364-46.382545-12.334545-89.227636-35.514182-127.767273-67.281455C473.832727 798.347636 430.498909 821.527273 383.860364 833.861818 360.168727 840.075636 335.522909 843.380364 310.365091 843.380364L310.365091 843.380364z"  horiz-adv-x="1025" />

    
    <glyph glyph-name="sousuo5" unicode="&#58897;" d="M936.264796 41.660074 757.429759 220.480786c46.499034 63.167668 74.019831 141.124158 74.019831 225.397516 0 210.099089-170.944324 381.038296-381.054669 381.038296s-381.048529-170.939207-381.048529-381.038296c0-210.105229 170.939207-381.043413 381.048529-381.043413 84.275405 0 162.234965 27.519774 225.40468 74.018807l178.832991-178.818665c11.270694-11.264555 26.03598-16.902972 40.813544-16.902972 14.776542 0 29.54285 5.638417 40.818661 16.902972C958.801069-17.419486 958.801069 19.125849 936.264796 41.660074zM163.139567 445.878303c0 158.388357 128.86188 287.25126 287.256376 287.25126s287.261493-128.86188 287.261493-287.25126c0-158.390403-128.866996-287.252283-287.261493-287.252283S163.139567 287.487899 163.139567 445.878303z"  horiz-adv-x="1024" />

    
    <glyph glyph-name="jia1" unicode="&#58912;" d="M980.918297 341.147006 43.079656 341.147006c-23.657816 0-42.856064 19.197224-42.856064 42.8489 0 23.657816 19.198248 42.857087 42.856064 42.857087l937.838641 0c23.697725 0 42.859134-19.199271 42.859134-42.857087C1023.775384 360.344231 1004.616022 341.147006 980.918297 341.147006L980.918297 341.147006zM469.147518-84.917786 469.147518 852.920856c0 23.657816 19.197224 42.856064 42.8489 42.856064 23.657816 0 42.856064-19.198248 42.856064-42.856064l0-937.838641c0-23.697725-19.199271-42.859134-42.856064-42.859134C488.344742-127.774873 469.147518-108.615511 469.147518-84.917786L469.147518-84.917786z"  horiz-adv-x="1024" />

    
    <glyph glyph-name="wodehongbao" unicode="&#58928;" d="M852.845898 831.963545 173.463704 831.963545c-20.052708 0-36.322254-16.269545-36.322254-36.322254l0-822.732044c0-20.052708 16.269545-36.322254 36.322254-36.322254l679.382195 0c20.052708 0 36.322254 16.269545 36.322254 36.322254L889.168152 795.641291C889.168152 815.693999 872.898607 831.963545 852.845898 831.963545zM776.175705 759.319038 605.709265 606.189452c-24.965601 21.200858-57.240679 34.051537-92.561116 34.051537-35.317367 0-67.589374-12.849656-92.554976-34.048467l-170.46337 153.12754L776.175705 759.320061zM574.814628 490.036012l0-11.340279-49.392944 0 0-22.237467 49.392944 0 0-11.340279-49.392944 0 0-35.620265-24.546046 0L500.875638 445.117986l-49.103348 0 0 11.340279 49.103348 0 0 22.237467-49.103348 0 0 11.340279 41.288358 0-56.918337 81.453127 27.631314 0 49.375547-74.41278 49.378617 74.41278 27.628244 0-56.918337-81.453127L574.814628 490.036012zM816.523645 9.231501l-606.738711 0L209.784934 730.464873 389.515365 569.012737c-12.334933-21.152762-19.520589-45.674249-19.520589-71.927169 0-79.06166 64.092737-143.154397 143.154397-143.154397 79.063707 0 143.156444 64.092737 143.156444 143.154397 0 26.250874-7.185656 50.77236-19.517519 71.924099l179.736571 161.455205L816.524668 9.231501z"  horiz-adv-x="1024" />

    
    <glyph glyph-name="tupian" unicode="&#58964;" d="M432.888596 240.596222 359.342127 342.35367C349.598306 355.835029 333.800712 355.83489 324.05699 342.35367L188.471613 154.76041C178.727792 141.27905 184.541661 130.350499 201.457031 130.350499L447.704979 130.350499 822.658642 130.350499C839.583509 130.350499 845.267916 141.25515 835.42945 154.706718L620.563382 448.480695C610.659782 462.021318 594.773609 461.932263 584.935143 448.480695L432.888596 240.596222 432.888596 240.596222ZM273.271058 548.126148a58.4 58.4 0 1 0 119.364471 0 58.4 58.4 0 1 0-119.364471 0ZM109.081528 697.331737 914.918473 697.331737C906.5326 697.331737 899.934531 704.008842 899.934531 712.19925L899.934531 55.80075C899.934531 64.008349 906.565377 70.668263 914.918473 70.668263L109.081528 70.668263C117.4674 70.668263 124.065469 63.991158 124.065469 55.80075L124.065469 712.19925C124.065469 703.991651 117.434624 697.331737 109.081528 697.331737ZM64.383234 55.80075C64.383234 31.187602 84.345684 10.986028 109.081528 10.986028L914.918473 10.986028C939.585548 10.986028 959.616766 31.105061 959.616766 55.80075L959.616766 712.19925C959.616766 736.812398 939.654316 757.013972 914.918473 757.013972L109.081528 757.013972C84.414452 757.013972 64.383234 736.894939 64.383234 712.19925L64.383234 55.80075Z"  horiz-adv-x="1024" />

    
    <glyph glyph-name="sousuo" unicode="&#58968;" d="M812.137931 489.931034C812.137931 714.196731 630.334658 896 406.068966 896 181.803273 896 0 714.196731 0 489.931034 0 265.665338 181.803273 83.862069 406.068966 83.862069 630.334658 83.862069 812.137931 265.665338 812.137931 489.931034ZM70.62069 489.931034C70.62069 675.194001 220.806003 825.37931 406.068966 825.37931 591.331928 825.37931 741.517241 675.194001 741.517241 489.931034 741.517241 304.668068 591.331928 154.482759 406.068966 154.482759 220.806003 154.482759 70.62069 304.668068 70.62069 489.931034ZM963.201748-117.13812C976.991303-130.927667 999.348577-130.927667 1013.138114-117.13812 1026.927669-103.348572 1026.927669-80.991299 1013.138114-67.201751L713.519916 232.416461C699.730361 246.206007 677.373087 246.206007 663.583532 232.416461 649.793995 218.626913 649.793995 196.269639 663.583532 182.480091L963.201748-117.13812Z"  horiz-adv-x="1024" />

    
    <glyph glyph-name="fenxiang1" unicode="&#58927;" d="M819.226977 236.56696C757.33302 236.56696 704.164682 201.590841 676.681057 150.703502L315.975759 333.577641C324.981478 353.785271 330.219749 376.028394 330.219749 399.578294 330.219749 424.602366 324.105457 448.026164 314.007223 469.204671L690.652752 624.424442C720.409572 586.160735 766.36664 561.108765 818.592 561.108765 908.4115 561.108765 981.226149 633.92118 981.226149 723.742911 981.226149 813.56241 908.410385 886.377056 818.592 886.377056 728.77027 886.377056 655.957857 813.56241 655.957857 723.742911 655.957857 715.302977 657.201027 707.195599 658.441961 699.102726L258.632648 534.339348C232.649975 551.926727 201.323016 562.212441 167.585604 562.212441 77.763872 562.212441 4.951458 489.396679 4.951458 399.578295 4.951458 309.756564 77.763874 236.944151 167.585604 236.944151 203.650889 236.944151 236.656237 249.066718 263.626526 268.9351L657.042563 69.479054C659.457479-18.230181 730.931866-88.701332 819.228092-88.701332 909.047592-88.701332 981.862241-15.888919 981.862241 73.932811 981.861126 163.751196 909.046477 236.56696 819.226977 236.56696L819.226977 236.56696Z"  horiz-adv-x="1024" />

    
    <glyph glyph-name="location" unicode="&#58893;" d="M821.248 188.224c65.92 75.136 106.624 173.824 106.624 282.816 0 71.872-17.92 139.264-48.832 198.656-1.216 3.2-2.816 5.888-4.608 8.704-1.216 2.176-2.24 4.416-3.52 6.592l-0.64-0.704c-7.936 8.448-18.88 13.76-31.168 13.312-22.976-0.768-40.96-20.416-40.256-43.968l0.576-3.904c0.32-11.456 5.248-21.632 12.672-28.992l-0.448-0.512c22.4-45.76 35.264-97.28 35.264-152 0-84.992-30.784-162.432-81.216-222.016-2.944-1.792-6.016-3.264-8.576-5.824l-35.072-37.568c-1.024-0.832-1.792-1.664-2.816-2.496l-138.944-148.096c0.448 0.064 0.896 0.256 1.344 0.384l-69.824-74.752-69.76 74.688c0.128-0.064 0.256-0.128 0.384-0.128l-138.944 151.104c-6.592 5.504-12.672 11.52-18.88 17.408l-18.112 19.456c-0.192 0.256-0.512 0.32-0.768 0.512-53.056 60.352-85.76 139.84-85.76 227.328 0 188.224 149.312 340.864 333.504 340.864 63.68 0 122.944-18.56 173.568-50.24l0.384 0.448c7.616-6.784 17.6-11.008 28.48-10.624 22.912 0.832 41.024 20.48 40.256 43.968l-0.576 3.968c-0.32 9.984-4.48 18.688-10.432 25.856l0.256 0.256c-0.256 0.192-0.576 0.384-0.768 0.576-5.184 5.824-11.648 9.984-19.136 12.224C663.104 873.792 590.208 896 512.064 896 282.432 896 96.32 705.728 96.32 471.04c0-108.16 40-206.464 105.216-281.344 1.792-3.328 3.392-6.656 6.144-9.408l272.768-292.032c0.64-0.768 0.896-1.728 1.6-2.496 0.576-0.576 1.344-0.768 1.92-1.344l0.064-0.064c3.072-3.136 6.72-5.056 10.432-6.976 0.512-0.256 0.896-0.768 1.344-0.96 15.488-7.424 34.304-5.056 47.104 7.936 3.264 3.392 5.44 7.36 7.36 11.392l265.728 284.544C818.368 182.656 819.584 185.536 821.248 188.224zM511.872 296.768c92.8 0 168 76.992 168 171.84 0 94.912-75.2 171.776-168 171.776-92.8 0-168-76.864-168-171.776C343.872 373.696 419.072 296.768 511.872 296.768zM511.296 553.856c45.76 0 82.816-37.888 82.816-84.672 0-46.784-37.056-84.8-82.816-84.8S428.416 422.4 428.416 469.248C428.416 515.968 465.472 553.856 511.296 553.856z"  horiz-adv-x="1024" />

    
    <glyph glyph-name="xiaolaba" unicode="&#58974;" d="M525.541411 764.496967l-230.494605-148.031475h-114.988917c-63.895239 0-115.679649-51.14996-115.679649-115.219161v-230.898811c0-63.664995 51.150984-115.219161 115.679649-115.219161h114.988917l230.494605-147.915841c32.582069-14.128789 57.840336 0.980327 57.840336 33.04358V731.45441c0 32.120558-25.892717 46.825468-57.840336 33.042557z m194.223516-186.033997c-10.841929 11.649318-29.122271 12.283768-40.712237 1.384533-11.649318-10.899234-12.226462-29.122271-1.384533-40.770565 5.363148-5.76633 14.531971-18.511609 23.989367-37.772279 16.146749-32.870642 25.892717-71.449285 25.892717-115.507733 0-44.058448-9.745968-82.694397-25.892717-115.507734-9.457396-19.259646-18.626219-32.004925-23.989367-37.772278-10.899234-11.648294-10.264784-29.871331 1.384533-40.770566 11.648294-10.899234 29.871331-10.264784 40.770566 1.384533 9.054213 9.68764 21.509896 26.987654 33.620725 51.727105 19.895119 40.483017 31.774681 87.654362 31.774681 140.996245 0 53.341882-11.879562 100.514251-31.774681 140.996244-12.169157 24.62484-24.625864 41.983183-33.679054 51.612495z m176.806845 35.69599c-23.297612 39.444361-46.825468 66.778916-63.318094 81.483826-11.880585 10.609639-30.102598 9.572006-40.714284-2.36486-10.609639-11.936867-9.573029-30.101575 2.364861-40.712238 2.709715-2.421142 8.131191-7.842619 15.396665-16.261358 12.455683-14.416338 24.911366-31.601742 36.619012-51.439556 33.504068-56.860009 53.630455-123.349329 53.630455-199.066825s-20.126386-142.206816-53.68776-199.125153c-11.706623-19.836791-24.220634-37.022195-36.619012-51.438533-7.265474-8.41874-12.68695-13.840216-15.397689-16.261359-11.879562-10.610662-12.916171-28.833699-2.363837-40.714283 10.553357-11.879562 28.833699-12.916171 40.713261-2.363838 16.493649 14.70491 40.021505 41.98216 63.319117 81.483826 38.522362 65.336054 61.646012 141.745305 61.646012 228.41934 0.058328 86.614683-23.066345 163.023934-61.588707 228.361011z"  horiz-adv-x="1024" />

    
    <glyph glyph-name="fenlei" unicode="&#58936;" d="M405.20192 408.39168H164.89984c-42.15808 0-77.29152 54.80448-77.29152 96.96256V725.98016c0 42.15808 35.13344 77.29152 77.29152 77.29152h240.30208c42.15808 0 77.29152-35.13344 77.29152-77.29152v-238.89408c-0.00512-43.56608-35.13344-78.6944-77.29152-78.6944z m18.26816 299.32032c0 19.67616-15.45728 35.13344-35.13344 35.13344H180.35712c-18.26816 0-33.72544-15.45728-33.72544-35.13344v-207.97952c0-19.67616 15.45728-35.13344 35.13344-35.13344h207.97952c19.67616 0 35.13344 15.45728 35.13344 35.13344V707.712h-1.408z m435.63008-299.32032h-240.30208c-42.15808 0-77.29152 54.80448-77.29152 96.96256V725.98016c0 42.15808 35.13344 77.29152 77.29152 77.29152h240.30208c42.15808 0 77.29152-35.13344 77.29152-77.29152v-238.89408c-0.00512-43.56608-33.73056-78.6944-77.29152-78.6944z m18.26816 299.32032c0 19.67616-15.45728 35.13344-35.13344 35.13344h-206.57152c-19.67616 0-35.13344-15.45728-35.13344-35.13344v-207.97952c0-19.67616 15.45728-35.13344 35.13344-35.13344h207.97952c19.67616 0 35.13344 15.45728 35.13344 35.13344V707.712h-1.408z m-18.26816-753.21856h-240.30208c-42.15808 0-77.29152 54.80448-77.29152 96.96256v219.22304c0 42.15808 35.13344 77.29152 77.29152 77.29152h240.30208c42.15808 0 77.29152-35.13344 77.29152-77.29152v-238.89408c-0.00512-42.1632-33.73056-77.29152-77.29152-77.29152z m18.26816 299.32032c0 19.67616-15.45728 35.13344-35.13344 35.13344h-206.57152c-19.67616 0-35.13344-15.45728-35.13344-35.13344v-207.97952c0-19.67616 15.45728-35.13344 35.13344-35.13344h207.97952c19.67616 0 35.13344 15.45728 35.13344 35.13344v207.97952h-1.408z m-472.1664-299.32032H164.89984c-42.15808 0-77.29152 54.80448-77.29152 96.96256v219.22304c0 42.15808 35.13344 77.29152 77.29152 77.29152h240.30208c42.15808 0 77.29152-35.13344 77.29152-77.29152v-238.89408c-0.00512-42.1632-35.13344-77.29152-77.29152-77.29152z m18.26816 299.32032c0 19.67616-15.45728 35.13344-35.13344 35.13344H180.35712c-19.67616 0-35.13344-15.45728-35.13344-35.13344v-207.97952c0-19.67616 15.45728-35.13344 35.13344-35.13344h207.97952c19.67616 0 35.13344 15.45728 35.13344 35.13344v207.97952z"  horiz-adv-x="1024" />

    
    <glyph glyph-name="xinfeng8" unicode="&#58966;" d="M583.53664 708.82304h126.04928a14.0032 14.0032 0 1 1 0 28.0064h-126.04928a13.99808 13.99808 0 0 1-14.0032-14.00832 13.99808 13.99808 0 0 1 14.0032-13.99808z m-238.08-112.04096h364.12928a14.0032 14.0032 0 1 1 0 28.0064H345.4464a14.0032 14.0032 0 1 1 0-28.0064z m378.13248-98.03264a13.99808 13.99808 0 0 1-14.0032 14.0032H345.4464a14.0032 14.0032 0 1 1 0-28.0064h364.1344a14.0032 14.0032 0 0 1 14.0032 14.0032z m226.11968 6.33344l-114.07872 47.8208v237.9264c0 32.07168-26.09664 58.04544-58.1632 58.04544H277.57056c-32.07168 0-58.1632-25.97376-58.1632-58.04544v-237.9264L115.0208 509.1328A58.04544 58.04544 0 0 1 79.36 455.49568v-444.6464c0-32.0768 26.09664-58.29632 58.1632-58.29632h779.99104c32.07168 0 58.1632 26.2144 58.1632 58.29632V466.00704a42.28096 42.28096 0 0 1-25.96864 39.07584z m-114.07872 17.44384l95.72352-40.13568-95.72352-60.01152v100.1472zM247.41888 790.83008c0 16.62976 13.52704 30.03392 30.1568 30.03392h499.88608c16.63488 0 30.1568-13.40416 30.1568-30.03392v-386.01216l-264.08448-165.55008a30.32064 30.32064 0 0 0-32.03072 0L247.41888 404.81792V790.83008zM125.85984 483.3024l93.54752 39.2192v-100.1472l-95.39584 59.8016c0.64512 0.33792 1.16736 0.83968 1.84832 1.1264z m821.8112-472.45312c0-16.64-13.52704-30.27968-30.1568-30.27968H137.5232c-16.62976 0-30.1568 13.6448-30.1568 30.27968V455.49568c0 1.28 0.39424 2.4576 0.54784 3.72224l388.70528-243.68128a58.1888 58.1888 0 0 1 30.89408-8.82176c10.752 0 21.51424 2.944 30.89408 8.82176l389.25824 244.0192v-448.70656z"  horiz-adv-x="1024" />

    
    <glyph glyph-name="mingpian" unicode="&#58973;" d="M877.34784 718.8224H146.65216C102.5024 718.8224 66.56 682.88 66.56 638.72512v-508.86656c0-44.16 35.9424-80.1024 80.09216-80.1024h28.83072c2.93376-0.11776 5.93408-0.18944 9.06752-0.18944 3.328 0 6.13376 0.07168 8.15104 0.18944 1.4336-0.06144 2.87232-0.06144 4.30592-0.06144a94.208 94.208 0 0 1 5.34528 0.128l319.78496-0.5888c0.97792-0.06144 2.6112-0.06144 4.7616-0.06144 2.54976 0 6.26176 0.06144 10.50112 0.38912h5.74976c1.88928 0 4.81792 0.07168 8.41216 0.26112h325.79072c44.14976 0 80.09216 35.9424 80.09216 80.1024V638.72512c-0.00512 44.15488-35.94752 80.09728-80.09728 80.09728z m-327.15776-613.29408h-12.65664l-1.36704-0.128c-0.27136 0-0.5888-0.07168-0.84992-0.07168l-341.12 0.32768h-1.11104l-1.10592-0.06144H177.03936c-5.08416 0.32256-8.99584 0.91136-11.6736 1.5616 2.0224 28.6976 15.1296 68.67968 46.89408 103.31648 25.96352 28.30336 73.30816 62.02368 151.90528 62.02368 78.72512 0 126.59712-33.78176 152.88832-62.16192 32.02048-34.56 45.3888-74.15808 47.61088-102.65088-3.65056-0.98304-8.66816-1.7664-14.47424-2.15552z m351.47776 24.33024a24.32 24.32 0 0 0-24.32-24.33024h-256.78848c-0.8448 22.10816-6.1952 45.7216-15.51872 68.80768-10.89024 26.86976-27.20256 52.43904-47.1552 73.90208-33.85344 36.4544-94.96064 79.95904-193.77664 79.95904-98.81088 0-159.46752-43.56608-192.99328-80.09216-21.52448-23.48032-38.2208-51.12832-48.78336-79.7696V638.72512a24.33024 24.33024 0 0 0 24.32512 24.33024H877.4144a24.33536 24.33536 0 0 0 24.33024-24.33024v-508.86656h-0.0768zM365.86496 606.83264c-72.91392 0-132.20352-59.28448-132.20352-132.20352 0-72.92416 59.2896-132.20864 132.20352-132.20864 72.92416 0 132.20864 59.2896 132.20864 132.20864 0.00512 72.91904-59.35104 132.20352-132.20864 132.20352z m0-208.64512c-42.13248 0-76.43648 34.30912-76.43648 76.44672 0 42.13248 34.304 76.43648 76.43648 76.43648s76.4416-34.30912 76.4416-76.43648c0.00512-42.14272-34.304-76.44672-76.4416-76.44672zM568.58624 607.744h277.06368v-55.76704h-277.06368V607.744z m0-111.52896h277.06368v-55.76192h-277.06368V496.21504z m0-111.53408h168.14592v-55.76192h-168.14592V384.68096z"  horiz-adv-x="1024" />

    
    <glyph glyph-name="903caidan_bangzhu" unicode="&#59010;" d="M511.62624-51.05152c-239.89248 0-435.0464 195.1488-435.0464 435.05152 0 239.89248 195.1488 435.0464 435.0464 435.0464 239.90272 0 435.0464-195.15392 435.0464-435.0464 0-239.8976-195.14368-435.05152-435.0464-435.05152z m0 817.82272c-211.06688 0-382.7712-171.70432-382.7712-382.76608 0-211.07712 171.70432-382.77632 382.7712-382.77632 211.072 0 382.7712 171.6992 382.7712 382.77632 0.00512 211.06176-171.6992 382.76608-382.7712 382.76608zM511.89248 80.03584c-26.40896 0-47.84128 21.43744-47.84128 47.8464s21.43232 47.84128 47.84128 47.84128c26.4192 0 47.85152-21.43232 47.85152-47.84128s-21.43232-47.8464-47.85152-47.8464zM600.192 390.79424c-27.7504-27.7248-56.3968-56.36608-56.3968-82.10432v-53.9392a31.90272 31.90272 0 0 0-31.8976-31.89248 31.90272 31.90272 0 0 0-31.89248 31.89248v53.9392c0 52.17792 39.86944 92.05248 75.0848 127.24224 25.8048 25.8048 52.5056 52.47488 52.5056 73.74336 0 53.17632-42.93632 96.42496-95.6928 96.42496-53.65248 0-95.68768-41.40032-95.68768-94.2592 0-17.60256-14.28992-31.89248-31.8976-31.89248s-31.8976 14.28992-31.8976 31.89248c0 87.14752 71.54688 158.05952 159.488 158.05952 87.94624 0 159.488-71.86944 159.488-160.22528-0.01536-47.71328-36.21376-83.88608-71.20384-118.88128z"  horiz-adv-x="1024" />

    
    <glyph glyph-name="geren" unicode="&#58946;" d="M561.975362 325.990433c118.779087 25.056318 207.964552 130.953221 207.408227 256.993438C768.740563 727.151626 650.929627 843.929387 506.761871 843.279136c-144.174981-0.643025-260.938291-118.453962-260.295265-262.614492 0.56355-126.047442 90.681041-231.142369 209.684103-255.143837-179.563057-26.559119-317.445058-182.048458-316.606957-368.73537a38.104678 38.104678 0 0 1 38.270853-37.931278l666.102138 2.962252a38.111903 38.111903 0 0 1 37.931278 38.270854c-0.830876 186.694137-140.092853 340.940775-319.872659 365.903168z"  horiz-adv-x="1024" />

    
    <glyph glyph-name="yanjing2" unicode="&#58896;" d="M515.2 672C208 672 22.4 358.4 22.4 358.4s214.4-304 492.8-304 492.8 304 492.8 304S822.4 672 515.2 672zM832 243.2c-102.4-86.4-211.2-140.8-320-140.8s-217.6 51.2-320 140.8c-35.2 32-70.4 64-99.2 99.2-6.4 6.4-9.6 12.8-16 19.2 3.2 6.4 9.6 12.8 12.8 19.2 25.6 35.2 57.6 70.4 92.8 102.4 99.2 89.6 208 144 329.6 144s230.4-54.4 329.6-144c35.2-32 64-67.2 92.8-102.4 3.2-6.4 9.6-12.8 12.8-19.2-3.2-6.4-9.6-12.8-16-19.2-28.8-32-60.8-67.2-99.2-99.2zM512 550.4c-96 0-169.6-76.8-169.6-169.6 0-96 76.8-169.6 169.6-169.6 96 0 169.6 76.8 169.6 169.6S604.8 550.4 512 550.4z m0-294.4c-67.2 0-121.6 54.4-121.6 121.6 0 67.2 54.4 121.6 121.6 121.6 67.2 0 121.6-54.4 121.6-121.6 0-64-54.4-121.6-121.6-121.6z"  horiz-adv-x="1024" />

    
    <glyph glyph-name="card" unicode="&#58920;" d="M797.52704 383.09888h-159.09888v-53.31456h159.09888v53.31456z m81.42848 346.5216H136.5248c-43.9296 0-79.54432-35.79904-79.54432-79.96416v-533.11488c0-44.16 35.61472-79.96416 79.54432-79.96416h742.43072c43.9296 0 79.54432 35.80416 79.54432 79.96416V649.65632c0 44.16512-35.6096 79.96416-79.54432 79.96416z m26.51136-559.7696c0-44.16512-35.6096-79.95904-79.5392-79.95904H189.55776c-43.9296 0-79.54432 35.79904-79.54432 79.95904V489.728h795.45344v-319.872z m0 373.18144H110.01344V596.34176c0 44.16512 35.6096 79.96416 79.54432 79.96416h636.3648c43.93472 0 79.54432-35.79904 79.54432-79.96416v-53.30944z m-371.21024-159.93344H163.04128v-53.31456h371.21536v53.31456zM375.16288 276.48h-212.1216v-53.30944h212.1216V276.48z"  horiz-adv-x="1024" />

    
    <glyph glyph-name="cuowutishi" unicode="&#59203;" d="M614.4 102.944681c8.714894-8.714894 13.07234-17.429787 13.07234-26.144681 0-13.07234-4.357447-21.787234-13.07234-26.144681-8.714894-8.714894-17.429787-13.07234-30.502128-13.07234s-21.787234 4.357447-26.144681 13.07234c-8.714894 8.714894-13.07234 17.429787-13.07234 26.144681 0 13.07234 4.357447 21.787234 13.07234 26.144681 8.714894 8.714894 17.429787 13.07234 26.144681 13.07234s21.787234-4.357447 30.502128-13.07234zM610.042553 595.33617l-8.714893-413.957447H566.468085l-8.714894 413.957447H610.042553zM583.897872 852.425532l540.323405-936.851064H43.574468L583.897872 852.425532m0 43.574468c-17.429787 0-30.502128-8.714894-39.217021-21.787234L4.357447-62.638298c-8.714894-13.07234-8.714894-30.502128 0-43.574468s21.787234-21.787234 39.217021-21.787234h1080.646809c17.429787 0 30.502128 8.714894 39.217021 21.787234s8.714894 30.502128 0 43.574468L623.114894 874.212766c-8.714894 13.07234-21.787234 21.787234-39.217022 21.787234z"  horiz-adv-x="1169" />

    
    <glyph glyph-name="shangjia" unicode="&#58937;" d="M536.576 263.68c-65.536 0-118.784 28.672-144.896 77.824H368.64c-28.16-47.616-81.408-77.824-138.752-77.824-88.064 0-159.744 68.608-159.744 153.6 0 2.56 0 7.168 57.344 272.896 1.024 55.296 48.128 99.328 105.472 99.328h576.512c57.344 0 104.448-44.544 105.472-99.328 59.392-265.728 59.392-269.824 59.392-272.896 0-87.552-65.024-153.088-151.04-153.088-54.272 0-97.792 26.624-125.952 77.824h-22.016c-28.16-48.128-81.408-78.336-138.752-78.336z m-193.024 118.784h74.752l5.12-12.8c16.896-40.96 59.392-65.536 113.152-65.536 46.592 0 89.088 26.112 108.032 66.56l5.632 11.776h72.704l5.632-11.776c20.992-44.544 52.224-66.048 95.232-66.048 63.488 0 109.056 46.592 110.08 110.592-3.072 16.896-36.352 167.936-58.88 267.264l-0.512 2.048v2.048c0 33.792-29.184 60.928-64.512 60.928H232.96c-35.84 0-64.512-27.136-64.512-60.928v-2.048l-0.512-2.048c-21.504-99.84-53.76-250.88-56.832-267.776 1.024-61.44 53.76-111.104 118.784-111.104 46.592 0 89.088 26.112 108.032 66.56l5.632 12.288z m589.824 34.304z m-822.272 0zM831.488-34.304H212.992c-52.736 0-93.696 40.96-93.696 92.672v165.888c0 11.264 9.216 20.48 20.48 20.48s20.48-9.216 20.48-20.48v-165.888c0-29.696 22.528-51.712 52.736-51.712h618.496c29.184 0 52.736 20.992 52.736 46.592v168.448c0 11.264 9.216 20.48 20.48 20.48s20.48-9.216 20.48-20.48v-168.448c0-48.128-41.984-87.552-93.696-87.552zM779.776 504.32H288.768c-11.264 0-20.48 9.216-20.48 20.48s9.216 20.48 20.48 20.48h491.008c11.264 0 20.48-9.216 20.48-20.48s-9.216-20.48-20.48-20.48z"  horiz-adv-x="1024" />

    
    <glyph glyph-name="search" unicode="&#58956;" d="M952 0l-204.992 204.992q86.016 106.016 86.016 243.008 0 159.008-112.512 271.488T448.512 832t-272-112.512T64 447.488t112.512-272T448 62.976q136.992 0 242.016 84.992l204.992-204q12-12 28.512-12t28 11.488 11.488 28-11.008 28.512z m-381.984 160Q512 135.008 448 135.008q-63.008 0-120.992 24.992-56 23.008-100 66.016Q184 270.016 160 326.016q-24 58.016-24 122.016 0 63.008 24 120.992 24 56 67.008 99.008 44 44 100 68 58.016 24 120.992 24 64 0 122.016-24 56-24 99.488-67.488T736 569.056q24.992-58.016 24.992-122.016 0-63.008-24.992-120.992-23.008-56-66.016-100-44-43.008-100-66.016z"  horiz-adv-x="1024" />

    
    </font>
</defs>
</svg>
